<?xml version="1.0" standalone="no"?>
<!DOCTYPE svg PUBLIC "-//W3C//DTD SVG 1.1//EN" "http://www.w3.org/Graphics/SVG/1.1/DTD/svg11.dtd" >
<svg xmlns="http://www.w3.org/2000/svg">
<metadata>
Created by FontPrep 20130207 at Sat Jan 14 23:01:59 2017
 By Predrag Jevtic
Copyright (c) 2011 Natanael Gama (exo@ndiscovered.com), with Reserved Font Name "Exo"
</metadata>
<defs>
<font id="afc140032df1a26f988b2ed34b8855ed" horiz-adv-x='1024' >
  <font-face 
    font-family="Exo-Regular"
    font-weight="400"
    font-stretch="normal"
    units-per-em="2048"
    panose-1="2 0 5 3 0 0 0 0 0 0"
    ascent="1638"
    descent="-410"
    x-height="1087"
    cap-height="1499"
    bbox="-184 -558.5 2742 2052"
    underline-thickness="102"
    underline-position="-102"
    unicode-range="U+000D-FB06"
  />
<missing-glyph horiz-adv-x="1552" 
d="M205 0v1087h1143v-1087h-1143zM1300 1061h-1046l526 -496zM233 45l525 500l-525 493v-993zM260 27h1038l-518 497zM1319 1036l-516 -491l516 -494v985z" />
    <glyph glyph-name="fi" unicode="fi" horiz-adv-x="1245" 
d="M41 936v117l201 34v109q0 182 110 298q111 116 282 116t398 -70v-100l-352 22q-117 8 -202 -53t-85 -213v-109l740 -20v-1067h-154v936h-586v-936h-151v936h-201z" />
    <glyph glyph-name="fl" unicode="fl" horiz-adv-x="1468" 
d="M41 936v117l203 34v109q0 182 81 298t253 116h550v-1223q0 -129 24 -173t93 -62q168 -43 182 -43v-109h-180q-145 0 -208 86q-62 86 -62 301v1075h-365q-108 0 -162 -55t-55 -211v-109h299v-151h-303v-936h-151v936h-199z" />
    <glyph glyph-name=".notdef" horiz-adv-x="1552" 
d="M205 0v1087h1143v-1087h-1143zM1300 1061h-1046l526 -496zM233 45l525 500l-525 493v-993zM260 27h1038l-518 497zM1319 1036l-516 -491l516 -494v985z" />
    <glyph glyph-name=".notdef" horiz-adv-x="1552" 
d="M205 0v1087h1143v-1087h-1143zM1300 1061h-1046l526 -496zM233 45l525 500l-525 493v-993zM260 27h1038l-518 497zM1319 1036l-516 -491l516 -494v985z" />
    <glyph glyph-name=".null" horiz-adv-x="0" 
 />
    <glyph glyph-name="uni000D" unicode="&#xd;" horiz-adv-x="2048" 
 />
    <glyph glyph-name="space" unicode=" " horiz-adv-x="512" 
 />
    <glyph glyph-name="exclam" unicode="!" horiz-adv-x="550" 
d="M180 1497h182l-14 -1096h-153zM168 47v117q0 51 49 51h113q47 0 47 -51v-117q0 -47 -47 -47h-113q-49 0 -49 47z" />
    <glyph glyph-name="quotedbl" unicode="&#x22;" horiz-adv-x="778" 
d="M451 1499h153v-137l-20 -275h-111l-22 275v137zM174 1499h154v-137l-21 -275h-110l-23 275v137z" />
    <glyph glyph-name="numbersign" unicode="#" horiz-adv-x="1406" 
d="M489 582l338 -2l54 340h-338zM41 475l16 107h326l53 338h-325l18 106h324l75 473h107l-76 -473h340l74 473h106l-73 -473h362l-18 -106h-363l-53 -340h362l-16 -107h-362l-76 -473h-107l76 473l-340 2l-76 -475h-106l76 475h-324z" />
    <glyph glyph-name="dollar" unicode="$" horiz-adv-x="1177" 
d="M913 319v140q0 201 -170 200h-266q-290 0 -349 228q-15 57 -15 125v135q2 203 103 281t284 83v177h118v-183q76 -6 226 -23t166 -20v-119l-492 19q-119 4 -168 -25t-67 -75t-19 -115v-135q0 -201 213 -201h266q201 0 268 -115q54 -93 54 -237v-140q0 -204 -142 -279
q-120 -64 -305 -56v-168h-118v178q-76 8 -204 24l-136 17v112l489 -12q264 0 264 184z" />
    <glyph glyph-name="percent" unicode="%" horiz-adv-x="1955" 
d="M1272 260q0 -74 26 -98t101 -25h207q86 0 108 25t23 98v272q0 74 -27 99t-100 24h-207q-84 -1 -108 -25t-23 -98v-272zM1139 260v272q0 136 57 196t207 60h207q145 0 202 -60t58 -196v-272q0 -135 -58 -195t-206 -61h-207q-145 0 -203 60t-57 196zM465 0l897 1499h145
l-897 -1499h-145zM219 971q0 -74 27 -99t100 -24h207q86 0 109 24t22 99v272q0 75 -27 99t-100 24h-207q-84 0 -108 -25t-23 -98v-272zM86 971v272q0 135 57 195t207 61h207q145 0 203 -60t57 -196v-272q0 -135 -57 -195t-207 -61h-207q-145 0 -203 60q-57 61 -57 196z" />
    <glyph glyph-name="ampersand" unicode="&#x26;" horiz-adv-x="1304" 
d="M289 250q66 -84 170 -106t192 51l164 153l-319 426l-160 -133q-215 -176 -47 -391zM969 1352h-416q-92 0 -139 -22t-43 -79t71 -149l482 -651l233 243l47 -49l-104 -219l-84 -92l239 -334h-180l-168 227l-147 -137q-122 -116 -308 -96t-292 174q-111 150 -87 308t160 274
l177 149l-129 174q-78 113 -67 204q10 91 72 150t138 68q264 25 545 -41v-102z" />
    <glyph glyph-name="quotesingle" unicode="'" horiz-adv-x="378" 
d="M113 1499h153v-137l-20 -275h-111l-22 275v137z" />
    <glyph glyph-name="parenleft" unicode="(" horiz-adv-x="686" 
d="M154 657q0 412 210 879q48 109 82 168l33 57h166q-215 -353 -303 -765q-37 -172 -37 -336t35 -340t111 -373q76 -196 159 -324l35 -53h-166q-12 18 -35 52t-78 147q-56 113 -100 233t-78 304q-34 182 -34 351z" />
    <glyph glyph-name="parenright" unicode=")" horiz-adv-x="686" 
d="M381 660q0 164 -35 334t-113 372q-78 203 -157 338l-35 57h166q12 -23 35 -61t79 -161q121 -263 182 -567q62 -304 -4 -665q-34 -180 -107 -374t-150 -314l-35 -49h-166q49 70 113 198q63 128 108 248t82 300t37 344z" />
    <glyph glyph-name="asterisk" unicode="*" horiz-adv-x="901" 
d="M514 1169l246 156l39 -72l-187 -198zM426 975l84 127l225 -187l-43 -65zM360 1468l80 33l154 -241l-139 -64zM242 848l49 276l147 -34l-121 -267zM102 1159v82l285 59l10 -151z" />
    <glyph glyph-name="plus" unicode="+" horiz-adv-x="1056" 
d="M102 653v152h349v350h151v-350h352v-152h-352v-350h-151v350h-349z" />
    <glyph glyph-name="comma" unicode="," horiz-adv-x="552" 
d="M174 51v111q0 55 51 55h105q49 0 49 -55v-185q0 -136 -125 -158q-29 -5 -49 -3l-21 4v65q63 -2 64 64v51h-23q-51 0 -51 51z" />
    <glyph glyph-name="hyphen" unicode="-" horiz-adv-x="724" 
d="M41 518v152h643v-152h-643z" />
    <glyph glyph-name="period" unicode="." horiz-adv-x="557" 
d="M174 47v117q0 51 49 51h109q51 0 51 -51v-117q0 -47 -51 -47h-109q-49 0 -49 47z" />
    <glyph glyph-name="slash" unicode="/" horiz-adv-x="819" 
d="M41 -147l575 1724h162l-575 -1724h-162z" />
    <glyph glyph-name="zero" unicode="0" horiz-adv-x="1316" 
d="M295 332q0 -94 58 -137t143 -43h335q190 0 191 180v835q0 180 -191 181h-335q-102 0 -152 -50t-49 -131v-835zM143 332v835q-1 160 99 246t254 86h335q175 0 259 -93t84 -239v-835q0 -332 -343 -332h-335q-154 0 -254 80t-99 252z" />
    <glyph glyph-name="one" unicode="1" horiz-adv-x="741" 
d="M578 1499v-1499h-152v1327l-344 -110v108l344 174h152z" />
    <glyph glyph-name="two" unicode="2" horiz-adv-x="1222" 
d="M82 1366v113q322 41 623 41q207 0 311 -127t104 -303q0 -113 -63 -242q-63 -128 -149 -232t-230 -235q-143 -131 -289 -229h731v-152h-1024v139q192 130 363 272q172 142 268 244q96 103 168 223t72 228t-66 184t-199 76h-620z" />
    <glyph glyph-name="three" unicode="3" horiz-adv-x="1216" 
d="M545 -14q-311 0 -471 57l2 96h610q163 0 203 89q18 40 18 102v121q0 209 -209 217l-497 14v119l497 20q213 10 213 203v141q0 91 -62 139t-151 48h-637v94q150 56 416 58q109 1 255 -1t238 -97q93 -95 93 -241v-141q0 -225 -135 -279q135 -86 135 -294v-121
q0 -344 -365 -344h-153z" />
    <glyph glyph-name="four" unicode="4" horiz-adv-x="1234" 
d="M858 543v424l76 153h76v-577h184v-121l-184 -39v-379h-152v379h-747l-70 76l657 1040h181l-603 -956h582z" />
    <glyph glyph-name="five" unicode="5" horiz-adv-x="1234" 
d="M1114 573v-233q0 -98 -34 -171t-88 -109q-102 -68 -214 -68q-207 0 -317 8t-305 41v113h622q96 0 141 55q44 55 44 135v225q0 139 -80 174q-41 18 -105 19h-315q-68 0 -118 -39t-50 -115h-135l45 891h864v-151h-725l-25 -496q54 65 261 68l198 -7q174 0 255 -91t81 -249z
" />
    <glyph glyph-name="six" unicode="6" horiz-adv-x="1275" 
d="M285 725q0 -456 138 -548q42 -28 95 -27h305q90 0 135 32t46 133v256q0 154 -181 154h-538zM133 786q-1 375 103 550t249 175q334 0 619 -38v-113h-592q-66 0 -113 -55t-78 -181t-36 -290q367 43 547 43t251 -82q70 -82 70 -224v-268q0 -305 -330 -305h-305
q-90 0 -156 34t-120 118q-110 172 -109 636z" />
    <glyph glyph-name="seven" unicode="7" horiz-adv-x="1118" 
d="M61 1348v151h940l56 -98l-543 -1401h-180l528 1348h-801z" />
    <glyph glyph-name="eight" unicode="8" horiz-adv-x="1298" 
d="M305 1012q1 -92 59 -132t128 -40h325q176 0 176 172v139q0 111 -44 159t-136 48h-299q-111 0 -160 -39t-49 -168v-139zM305 309q0 -158 209 -157h297q74 0 128 41t54 116v215q0 82 -51 124t-125 42h-325q-80 0 -134 -39t-53 -127v-215zM154 315v201q0 70 28 118
q29 48 62 66t84 35q-90 31 -132 112t-42 175v133q0 195 94 275t266 79h299q168 0 250 -84t82 -270v-133q4 -52 -14 -108q-36 -110 -140 -130q76 -14 116 -100t38 -168v-201q0 -95 -33 -161t-87 -98q-94 -56 -214 -56h-297q-100 0 -172 26t-108 60q-80 74 -80 229z" />
    <glyph glyph-name="nine" unicode="9" horiz-adv-x="1275" 
d="M272 938q0 -154 181 -154h538q0 257 -33 362q-16 54 -39 106q-50 108 -161 108h-305q-89 0 -135 -33t-46 -133v-256zM123 938v268q0 305 330 305h305q90 1 156 -33t119 -118q110 -171 110 -637q1 -375 -103 -550t-249 -175q-430 0 -619 39v113h592q168 0 215 368
q10 78 12 158q-365 -43 -547 -43t-251 82q-70 82 -70 223z" />
    <glyph glyph-name="colon" unicode=":" horiz-adv-x="557" 
d="M174 922v116q0 51 49 52h109q51 0 51 -52v-116q0 -47 -51 -48h-109q-49 1 -49 48zM174 47v117q0 51 49 51h109q51 0 51 -51v-117q0 -47 -51 -47h-109q-49 0 -49 47z" />
    <glyph glyph-name="semicolon" unicode=";" horiz-adv-x="561" 
d="M178 924v116q0 51 49 52h109q51 0 51 -52v-116q0 -47 -51 -47h-109q-49 0 -49 47zM330 217q49 0 49 -55v-185q0 -136 -125 -158q-29 -5 -49 -3l-21 4v65q63 -2 64 64v51h-23q-20 0 -36 16q-15 17 -15 35v111q0 23 14 39t37 16h105z" />
    <glyph glyph-name="less" unicode="&#x3c;" horiz-adv-x="972" 
d="M102 643v164l768 332v-164l-565 -250l565 -270v-168z" />
    <glyph glyph-name="equal" unicode="=" horiz-adv-x="956" 
d="M41 862v152h874v-152h-874zM41 434v152h874v-152h-874z" />
    <glyph glyph-name="greater" unicode="&#x3e;" horiz-adv-x="972" 
d="M102 287v168l566 270l-566 250v164l768 -332v-164z" />
    <glyph glyph-name="question" unicode="?" horiz-adv-x="1107" 
d="M348 47v117q0 51 49 51h113q47 0 47 -51v-117q0 -47 -47 -47h-113q-49 0 -49 47zM41 1360v113q104 15 157 21l123 12q69 7 91 7q22 -1 96 3q76 4 110 -3q216 0 312 -105t96 -273v-207q0 -199 -138 -278t-360 -44v-207h-153v332h291q86 4 148 53t63 144v207q0 119 -66 172
t-215 53h-555z" />
    <glyph glyph-name="at" unicode="@" horiz-adv-x="1728" 
d="M612 233q0 -35 38 -69t90 -32t124 22t105 35t114 55v252l-348 -33q-59 -6 -92 -44t-31 -93v-93zM133 0v713q0 154 76 239q33 37 103 67t165 30h441q129 0 221 -67t92 -220v-762h-115l-29 131l-20 -16q-190 -133 -344 -133q-113 -2 -189 66t-73 173v109q-1 124 69 198
t195 74h358q2 156 0 156q0 82 -41 110t-131 29h-434q-90 0 -141 -37t-51 -147v-713q0 -211 192 -211h715q121 0 166 50t45 161v1049q0 115 -57 174t-154 59h-827v96q276 57 589 56h238q168 -4 265 -102t97 -283v-1049q0 -365 -362 -365h-715q-160 1 -252 95t-92 270z" />
    <glyph glyph-name="A" unicode="A" horiz-adv-x="1372" 
d="M469 569h489l-241 699zM92 0l551 1499h152l526 -1499h-180l-129 418h-598l-135 -418h-187z" />
    <glyph glyph-name="B" unicode="B" horiz-adv-x="1220" 
d="M317 860h424q238 0 238 244t-238 244h-424v-488zM317 152h424q246 0 246 270q0 123 -61 205t-185 82h-424v-557zM164 0v1499h577q203 0 296 -119t93 -270q0 -272 -188 -332q78 -18 137 -109t59 -258t-79 -280q-92 -131 -318 -131h-577z" />
    <glyph glyph-name="C" unicode="C" horiz-adv-x="1183" 
d="M113 754q0 389 105 575t394 187q223 0 500 -52v-121h-18q-61 7 -158 11q-96 4 -165 7t-181 3t-184 -50t-107 -182t-35 -382q0 -610 348 -611l500 15v-121q-242 -45 -500 -45q-499 0 -499 766z" />
    <glyph glyph-name="D" unicode="D" horiz-adv-x="1345" 
d="M315 158h406q129 0 217 83q164 155 164 488t-97 475t-284 144h-406v-1190zM164 0v1499h557q133 0 232 -50t155 -126q146 -199 145 -580q0 -224 -80 -421t-245 -277q-92 -45 -207 -45h-557z" />
    <glyph glyph-name="E" unicode="E" horiz-adv-x="1161" 
d="M164 252v981q0 141 73 206t185 60l647 -33v-118h-647q-49 0 -75 -20t-29 -38q-3 -20 -3 -57v-410l672 -20v-121l-672 -20v-410q0 -51 23 -76t43 -28t61 -3h627v-116l-627 -35q-278 -16 -278 258z" />
    <glyph glyph-name="F" unicode="F" horiz-adv-x="1161" 
d="M164 0v1233q0 141 73 206t185 60l647 -33v-118h-647q-49 0 -75 -20t-29 -38q-3 -20 -3 -57v-410l672 -20v-121l-672 -20v-662h-151z" />
    <glyph glyph-name="G" unicode="G" horiz-adv-x="1257" 
d="M113 772q-1 324 85 516q101 227 394 228q80 0 247 -18t273 -38v-121q-29 1 -180 13t-343 12q-193 0 -259 -140t-66 -476t74 -472t262 -137q126 0 330 70l63 24v410h-344v102q186 51 357 52q66 0 139 -6v-791h-115l-33 100q-201 -111 -397 -110q-123 -2 -213 38t-142 104
t-83 168q-31 103 -40 209q-9 107 -9 263z" />
    <glyph glyph-name="H" unicode="H" horiz-adv-x="1306" 
d="M164 0v1499h151v-698h717v698h152v-1499h-152v649h-717v-649h-151z" />
    <glyph glyph-name="I" unicode="I" horiz-adv-x="438" 
d="M164 0v1499h151v-1499h-151z" />
    <glyph glyph-name="J" unicode="J" horiz-adv-x="735" 
d="M461 1499h151v-1161q0 -233 -106 -301q-82 -51 -218 -49t-216 55l8 111q178 -43 252 -27q127 29 129 211v1161z" />
    <glyph glyph-name="K" unicode="K" horiz-adv-x="1210" 
d="M164 0v1499h151v-672h168l471 672h185l-516 -747l516 -752h-185l-471 676h-166v-676h-153z" />
    <glyph glyph-name="L" unicode="L" horiz-adv-x="1140" 
d="M164 258v1241h151v-1241q0 -78 39 -92t88 -14h627v-152h-627q-117 0 -188 41q-90 52 -90 217z" />
    <glyph glyph-name="M" unicode="M" horiz-adv-x="1640" 
d="M113 0l98 1499h209l399 -1247l387 1247h207l115 -1499h-152l-92 1225l-385 -1225h-156l-397 1225l-82 -1225h-151z" />
    <glyph glyph-name="N" unicode="N" horiz-adv-x="1392" 
d="M164 0v1499h155l799 -1216v1216h152v-1499h-152l-801 1217v-1217h-153z" />
    <glyph glyph-name="O" unicode="O" horiz-adv-x="1384" 
d="M285 690q0 -150 19 -266q20 -116 76 -180t130 -82t190 -18t183 12q147 30 202 158q55 127 55 436q1 309 -48 422q-20 46 -37 77q-27 52 -106 85q-43 20 -110 22t-124 2t-125 -2t-101 -18q-33 -14 -65 -36t-50 -53q-17 -31 -38 -77q-51 -117 -51 -482zM133 741
q0 346 76 510q39 85 85 137q81 92 257 113q68 8 158 8q279 0 384 -82t152 -243t47 -400q0 -415 -95 -594q-79 -147 -279 -184q-82 -14 -194 -14t-181 8q-179 20 -258 110q-105 118 -135 338q-16 124 -17 293z" />
    <glyph glyph-name="P" unicode="P" horiz-adv-x="1189" 
d="M274 762h465q98 0 152 59q53 59 51 247t-77 239q-37 25 -63 31t-63 8h-465v-584zM123 0v1499h616q358 0 359 -434q0 -335 -168 -417q-53 -26 -94 -32q-40 -6 -98 -6t-257 18t-207 23v-651h-151z" />
    <glyph glyph-name="Q" unicode="Q" horiz-adv-x="1384" 
d="M756 -68q167 -117 344 -41v-163q-207 -58 -351 48q-84 60 -100 156h107zM378 244q54 -64 128 -82t204 -18t204 21q74 23 130 87q95 112 97 454q1 343 -50 466q-19 46 -37 77q-29 52 -107 85q-43 20 -111 22t-125 2t-126 -2t-100 -18q-31 -14 -63 -36t-49 -53
q-16 -31 -37 -77q-51 -117 -51 -469q1 -352 93 -459zM133 758q0 370 100 557q45 82 124 126t157 56t188 12t177 -8q173 -20 257 -113q109 -123 139 -349q17 -127 17 -311q0 -355 -97 -538q-79 -147 -282 -184q-82 -14 -193 -14t-181 8q-181 21 -256 110q-105 122 -133 338
q-16 122 -17 310z" />
    <glyph glyph-name="R" unicode="R" horiz-adv-x="1214" 
d="M274 776h488q120 0 152 59q40 75 40 234q0 160 -53 218t-139 59h-488v-570zM123 0v1499h639q346 0 346 -450q0 -393 -260 -431l315 -618h-164l-315 612l-410 29v-641h-151z" />
    <glyph glyph-name="S" unicode="S" horiz-adv-x="1196" 
d="M133 1012v135q1 207 107 286t299 78q139 0 512 -49v-123l-512 21q-129 6 -191 -34t-63 -179v-135q0 -127 50 -164t159 -37h290q319 0 320 -352v-140q0 -207 -133 -277q-107 -58 -281 -58q-72 0 -253 18t-259 33v123q225 -23 512 -23q262 0 262 184v140q0 96 -37 148
t-131 52h-286q-235 0 -305 113q-60 94 -60 240z" />
    <glyph glyph-name="T" unicode="T" horiz-adv-x="1183" 
d="M92 1348v151h1041v-151h-451v-1348h-152v1348h-438z" />
    <glyph glyph-name="U" unicode="U" horiz-adv-x="1386" 
d="M164 655v844h151v-844q0 -186 24 -296q24 -111 87 -155t117 -54t137 -9q82 0 140 2t86 15q83 36 108 72q53 76 67 140q29 132 29 285v844h154v-844q0 -190 -36 -322t-82 -198q-46 -67 -131 -101t-141 -39t-108 -5h-66q-186 0 -225 13t-81 29t-66 41q-24 27 -54 61
q-31 34 -47 84q-44 139 -54 239q-9 100 -9 198z" />
    <glyph glyph-name="V" unicode="V" horiz-adv-x="1372" 
d="M92 1499h166l438 -1257l459 1257h166l-551 -1499h-152z" />
    <glyph glyph-name="W" unicode="W" horiz-adv-x="1970" 
d="M92 1499h166l436 -1235l371 1235h172l-139 -479l272 -768l383 1247h166l-469 -1499h-152l-280 766l-248 -766h-152z" />
    <glyph glyph-name="X" unicode="X" horiz-adv-x="1220" 
d="M92 1499h166l369 -629l377 629h165l-442 -739l432 -760h-166l-366 631l-363 -631h-166l428 760z" />
    <glyph glyph-name="Y" unicode="Y" horiz-adv-x="1290" 
d="M721 0h-152v532l-477 967h166l387 -786l428 786h166l-518 -967v-532z" />
    <glyph glyph-name="Z" unicode="Z" horiz-adv-x="1153" 
d="M72 0v152l811 1196h-811v151h1009v-151l-811 -1196h811v-152h-1009z" />
    <glyph glyph-name="bracketleft" unicode="[" horiz-adv-x="657" 
d="M174 -78v1450q0 120 45 220q27 60 86 96t148 36h163v-151h-163q-57 0 -93 -54t-34 -147v-1450q0 -92 34 -146t93 -55h163v-151h-163q-88 0 -148 36q-131 80 -131 316z" />
    <glyph glyph-name="backslash" unicode="\" horiz-adv-x="819" 
d="M41 1577h162l575 -1724h-162z" />
    <glyph glyph-name="bracketright" unicode="]" horiz-adv-x="657" 
d="M41 -279h164q57 1 92 55t35 146v1450q0 92 -35 146t-92 55h-164v151h164q175 0 233 -132q45 -100 45 -220v-1450q0 -118 -45 -220q-27 -60 -86 -96t-147 -36h-164v151z" />
    <glyph glyph-name="asciicircum" unicode="^" horiz-adv-x="802" 
d="M102 1087l240 267h145l213 -267h-145l-143 146l-162 -146h-148z" />
    <glyph glyph-name="underscore" unicode="_" horiz-adv-x="1380" 
d="M41 -2v152h1298v-152h-1298z" />
    <glyph glyph-name="grave" unicode="`" horiz-adv-x="495" 
d="M41 1360h195l219 -273h-142z" />
    <glyph glyph-name="a" unicode="a" horiz-adv-x="1062" 
d="M233 268q0 -129 121 -129q129 0 379 78l76 27v293l-455 -33q-61 -6 -91 -43t-30 -90v-103zM82 258v125q0 125 73 199t199 73q455 -2 455 0q2 135 0 138q0 168 -176 168t-516 -25v111q207 57 530 61q137 2 225 -77t89 -238v-793h-113l-39 131l-31 -14q-184 -89 -279 -109
q-94 -20 -145 -20q-116 0 -194 72t-78 198z" />
    <glyph glyph-name="b" unicode="b" horiz-adv-x="1134" 
d="M674 139q207 0 207 400q-1 237 -51 325t-156 88q-197 0 -402 -53v-666q231 -94 402 -94zM123 0v1608h147v-586q92 38 210 60t212 22t168 -47q172 -109 172 -518q0 -214 -67 -368q-37 -85 -111 -134t-174 -49t-228 48t-180 85l-41 -121h-108z" />
    <glyph glyph-name="c" unicode="c" horiz-adv-x="1024" 
d="M102 545q0 171 26 285q45 196 187 247q156 53 613 -33v-110q-286 12 -404 12t-149 -10t-63 -48q-58 -69 -58 -324q0 -256 46 -340t161 -83q211 0 403 17l78 6v-115q-197 -55 -481 -59q-85 0 -143 20t-110 76t-79 172q-27 115 -27 287z" />
    <glyph glyph-name="d" unicode="d" horiz-adv-x="1134" 
d="M254 539q0 -399 207 -400q170 0 401 94v666q-205 53 -401 53q-107 0 -157 -88t-50 -325zM165 923q75 181 296 181q77 0 193 -23t208 -59v586h150v-1608h-109l-41 121q-51 -37 -179 -85t-228 -48t-174 49t-111 134q-68 156 -68 377t63 375z" />
    <glyph glyph-name="e" unicode="e" horiz-adv-x="1075" 
d="M254 610h459q129 0 129 101q0 157 -46 195t-237 38t-230 -43q-60 -63 -67 -136q-8 -73 -8 -155zM102 549q0 180 25 290t89 166q66 56 144 73q78 18 204 18t190 -10q62 -10 124 -48q116 -70 115 -327q0 -250 -280 -250h-459q0 -190 43 -255t164 -65q373 0 512 21v-115
q-203 -57 -512 -57q-207 0 -283 118t-76 441z" />
    <glyph glyph-name="f" unicode="f" horiz-adv-x="819" 
d="M41 936v117l199 34v203q0 168 57 241q61 79 223 79q98 0 258 -49v-101l-252 2q-95 0 -115 -47t-20 -125v-203h303v-151h-303v-936h-151v936h-199z" />
    <glyph glyph-name="g" unicode="g" horiz-adv-x="1134" 
d="M252 705q0 -87 26 -144q49 -106 162 -104h201q111 0 157 78q46 77 41 183t-46 164t-154 58h-184q-203 1 -203 -235zM336 23q-52 0 -92 16v-277q0 -164 176 -163h307q156 0 156 163v119q0 78 -28 110t-112 32h-407zM98 236q0 57 31 107t90 63q-119 76 -119 282t94 305
q94 98 261 99h639v-115l-166 -37q12 -24 26 -48t25 -64q12 -40 12 -110t-13 -130t-46 -128q-33 -69 -105 -112t-174 -43h-319q-84 0 -84 -61q0 -70 84 -70h436q125 0 195 -77t69 -206v-129q0 -111 -52 -201q-30 -52 -96 -83t-159 -31h-307q-150 0 -239 80t-89 235v175
l82 133q-76 53 -76 166z" />
    <glyph glyph-name="h" unicode="h" 
d="M123 0v1606h151v-645q6 1 45 25t49 28t44 23q35 19 49 23t70 26q56 20 145 20q156 0 246 -102t90 -246v-758h-152v758q0 98 -50 147t-131 49q-148 0 -262 -50q-42 -17 -143 -66v-838h-151z" />
    <glyph glyph-name="i" unicode="i" horiz-adv-x="403" 
d="M123 0v1087h151v-1087h-151zM102 1264v110q0 51 50 51h102q47 0 47 -51v-110q0 -47 -47 -47h-102q-50 0 -50 47z" />
    <glyph glyph-name="j" unicode="j" horiz-adv-x="444" 
d="M145 -553v1640h152v-1095q4 -360 -53 -545h-99zM123 1264v110q0 51 49 51h102q47 0 48 -51v-110q0 -47 -48 -47h-102q-49 0 -49 47z" />
    <glyph glyph-name="k" unicode="k" horiz-adv-x="1024" 
d="M123 0v1602h151v-902h82l416 387h211l-483 -462l483 -625h-188l-439 549h-82v-549h-151z" />
    <glyph glyph-name="l" unicode="l" horiz-adv-x="614" 
d="M123 387v1217h151v-1217q0 -125 29 -173t88 -62q168 -43 182 -43v-109h-180q-270 0 -270 387z" />
    <glyph glyph-name="m" unicode="m" horiz-adv-x="1839" 
d="M123 0v1087h106l45 -131q12 8 50 30t68 39q29 17 96 42q90 33 183 33t175 -43t117 -117q193 160 438 160q143 0 239 -98t97 -252v-750h-152v750q0 90 -52 144t-132 54q-123 0 -212 -24t-190 -90v-834h-151v750q0 90 -52 144t-131 54q-141 0 -249 -48q-37 -15 -142 -66
v-834h-151z" />
    <glyph glyph-name="n" unicode="n" 
d="M123 0v1087h106l45 -126q6 1 45 25t49 28t44 23q35 19 49 23t70 26q56 20 145 20q156 0 246 -102t90 -246v-758h-152v758q0 96 -51 146t-131 50q-147 0 -261 -50q-42 -17 -143 -66v-838h-151z" />
    <glyph glyph-name="o" unicode="o" horiz-adv-x="1163" 
d="M254 520q0 -125 19 -205q19 -81 67 -117t99 -46q49 -10 143 -10t146 10t98 48t64 116t19 218q0 140 -15 224t-60 126q-46 42 -98 52t-142 10t-135 -6q-117 -16 -157 -96q-48 -98 -48 -324zM102 544q0 314 104 434t378 120q272 0 374 -122t102 -438t-102 -432t-374 -116
t-377 120t-105 434z" />
    <glyph glyph-name="p" unicode="p" horiz-adv-x="1134" 
d="M674 135q106 0 156 88t51 326q0 399 -207 399q-172 0 -404 -94v-666q205 -53 404 -53zM123 -553v1640h108l39 -120q50 37 180 85t230 48t174 -49t111 -135q67 -155 67 -367q0 -410 -173 -518q-75 -47 -168 -47t-211 22t-210 60v-619h-147z" />
    <glyph glyph-name="q" unicode="q" horiz-adv-x="1136" 
d="M254 549q0 -209 29 -287q49 -131 196 -131q115 0 186 9t197 42v766h-383q-225 0 -225 -399zM1014 -553h-152v612q-197 -80 -383 -79q-224 0 -306 164q-71 144 -71 406q0 263 94 406q94 144 281 144q186 0 349 -22t188 -25v-1606z" />
    <glyph glyph-name="r" unicode="r" horiz-adv-x="872" 
d="M123 0v1087h106l45 -137q145 87 214 112t113 32q44 6 121 6t109 -17v-149q-49 12 -139 12q-163 0 -273 -51q-42 -18 -145 -68v-827h-151z" />
    <glyph glyph-name="s" unicode="s" horiz-adv-x="1036" 
d="M82 733v94q0 133 65 202t239 69t513 -33v-117h-534q-96 0 -116 -36q-14 -25 -16 -85v-94q0 -80 35 -98q35 -17 97 -19h323q129 0 198 -72t68 -192v-100q0 -152 -74 -207t-192 -55q-190 0 -561 39v112h561q0 2 16 -1t45 13q54 28 54 99v100q0 57 -26 85t-89 28h-323
q-150 0 -217 57q-66 57 -66 211z" />
    <glyph glyph-name="t" unicode="t" horiz-adv-x="774" 
d="M41 938v115l203 37l37 303h114v-303h318v-152h-318v-549q0 -125 29 -173t88 -62q168 -43 182 -43v-109h-180q-270 0 -270 387v549h-203z" />
    <glyph glyph-name="u" unicode="u" 
d="M102 330v757h152v-757q0 -96 51 -146t131 -51q140 0 261 50q42 17 143 67v837h151v-1087h-106l-45 127q-6 -2 -45 -26q-39 -23 -49 -27t-44 -24q-35 -20 -49 -23q-14 -5 -68 -25t-147 -20q-156 0 -246 102t-90 246z" />
    <glyph glyph-name="v" unicode="v" horiz-adv-x="1097" 
d="M41 1087h166l340 -864l344 864h166l-436 -1087h-152z" />
    <glyph glyph-name="w" unicode="w" horiz-adv-x="1640" 
d="M41 1087h166l321 -864l283 864h164l-111 -348l238 -516l332 864h165l-415 -1087h-152l-241 532l-179 -532h-163z" />
    <glyph glyph-name="x" unicode="x" horiz-adv-x="1073" 
d="M49 0l393 545l-393 542h189l294 -417l304 417h188l-397 -548l381 -539h-172l-299 414l-299 -414h-189z" />
    <glyph glyph-name="y" unicode="y" horiz-adv-x="1134" 
d="M43 1087h166l264 -849q14 -42 35 -60q21 -19 42 -23t37 -2q15 3 19 3l2 2l312 929h170l-480 -1431l-153 -209h-95l193 553q-176 0 -246 225z" />
    <glyph glyph-name="z" unicode="z" horiz-adv-x="933" 
d="M61 936v151h811v-151l-581 -782h581v-152h-780v152l592 782h-623z" />
    <glyph glyph-name="braceleft" unicode="{" horiz-adv-x="655" 
d="M41 752q184 0 184 108v483q1 162 99 272t290 109v-151q-111 0 -174 -50t-63 -180v-483q0 -72 -48 -117t-126 -59q74 -10 123 -58t49 -112v-592q-1 -98 65 -152t174 -49v-151q-108 0 -188 32t-122 85q-79 100 -81 235v584q0 58 -56 86t-126 22v138z" />
    <glyph glyph-name="bar" unicode="|" horiz-adv-x="501" 
d="M176 -147v1724h152v-1724h-152z" />
    <glyph glyph-name="braceright" unicode="}" horiz-adv-x="655" 
d="M430 860q0 -108 184 -108v-138q-70 6 -126 -22t-56 -86v-584q0 -135 -81 -235q-42 -53 -122 -85t-188 -32v151q109 -5 175 49t65 152v592q0 64 49 112t123 58q-78 14 -126 59t-48 117v483q1 129 -63 179t-175 51v151q193 0 291 -110t98 -271v-483z" />
    <glyph glyph-name="asciitilde" unicode="~" horiz-adv-x="897" 
d="M455 1275q66 -36 108 -36q50 0 112 35q61 35 75 47l45 -86q-73 -73 -96 -91q-68 -55 -127 -56q-60 -1 -129 35t-116 36q-47 -1 -102 -31t-80 -41l-43 84q16 13 56 49t57 49q108 78 240 6z" />
    <glyph glyph-name="exclamdown" unicode="&#xa1;" horiz-adv-x="550" 
d="M180 -553l13 1088h153l16 -1088h-182zM170 788v109q0 43 49 47h100q17 -2 33 -17t17 -36v-100q-4 -55 -47 -56h-103q-49 0 -49 53z" />
    <glyph glyph-name="cent" unicode="&#xa2;" horiz-adv-x="1003" 
d="M191 77q-109 109 -109 465t108 470q55 57 120 75t163 15v196h123v-206q154 -18 311 -48v-110q-285 16 -397 16t-140 -6q-26 -6 -55 -29t-45 -65q-35 -93 -36 -318q-2 -224 46 -310t160 -85q210 0 404 17l78 6v-115q-150 -43 -326 -53v-189h-123v183q-97 -2 -161 16
t-121 75z" />
    <glyph glyph-name="sterling" unicode="&#xa3;" horiz-adv-x="1220" 
d="M102 0v121l148 31v524h-148v92l148 35v231q0 267 100 367q62 62 151 80t202 18t341 -24l74 -9v-116h-397q-216 0 -255 -41q-50 -53 -57 -125t-8 -150v-231l555 -35v-92h-555v-524h715v-152h-1014z" />
    <glyph glyph-name="currency" unicode="&#xa4;" horiz-adv-x="940" 
d="M460 850q-86 0 -148 -62t-62 -149q0 -88 60 -154q60 -65 148 -65t150 66t62 154q0 90 -62 150t-148 60zM784 638q0 -102 -57 -187l109 -109l-86 -76l-101 101q-86 -66 -187 -66t-183 59l-97 -96l-76 86l93 90q-63 88 -63 198t57 191l-89 91l82 73l84 -86q84 61 193 61
t199 -69l98 96l71 -82l-96 -96q49 -77 49 -179z" />
    <glyph glyph-name="yen" unicode="&#xa5;" horiz-adv-x="1228" 
d="M1042 657v-120h-372v-103h372v-121h-372v-313h-152v313h-350v121h350v103h-350v120h348l-475 842h166l387 -692l422 692h172l-516 -842h370z" />
    <glyph glyph-name="brokenbar" unicode="&#xa6;" horiz-adv-x="503" 
d="M176 879v698h152v-698h-152zM176 -147v671h152v-671h-152z" />
    <glyph glyph-name="section" unicode="&#xa7;" horiz-adv-x="1130" 
d="M264 723q0 -63 26 -81t89 -19h366q87 0 103 27t16 75v127q0 61 -19 86t-100 25h-366q-71 -1 -93 -21t-22 -94v-125zM115 723v127q0 162 90 190q-92 27 -92 168v144q0 137 75 195q76 58 191 59q190 0 561 -39v-113h-561q-57 0 -85 -22t-30 -80v-144q0 -96 115 -96h366
q162 0 219 -65q56 -66 54 -195v-127q0 -170 -86 -182q84 -12 84 -168v-150q0 -157 -93 -205q-72 -36 -219 -36t-516 39v112h545q63 -1 96 17t35 73v150q0 61 -25 79q-26 17 -94 17h-366q-135 0 -200 52q-64 53 -64 200z" />
    <glyph glyph-name="dieresis" unicode="&#xa8;" horiz-adv-x="933" 
d="M625 1192q0 43 30 73q31 29 74 29t73 -30t30 -72q0 -43 -30 -74t-73 -31t-74 31q-30 31 -30 74zM102 1192q0 43 31 73q31 29 74 29t73 -30t30 -72q0 -43 -30 -74t-73 -31t-74 31t-31 74z" />
    <glyph glyph-name="copyright" unicode="&#xa9;" horiz-adv-x="1660" 
d="M768 301q-137 -1 -216 97t-79 340t80 349q80 106 215 107q90 0 365 -49v-107q-172 25 -365 25q-164 0 -164 -322q0 -147 35 -228t129 -81q147 0 377 33v-107q-205 -57 -377 -57zM244 754q0 -246 86 -433t248 -190h552q127 2 207 162t80 475t-69 457q-29 59 -84 101
t-134 42h-552q-156 0 -245 -135t-89 -479zM113 754q0 745 465 745h552q237 0 333 -214q85 -183 85 -513t-92 -542q-47 -108 -130 -169t-196 -61h-552q-109 0 -193 53t-134 133q-138 221 -138 568z" />
    <glyph glyph-name="ordfeminine" unicode="&#xaa;" horiz-adv-x="745" 
d="M188 975q0 -82 91 -82q55 0 123 16t110 33l41 16v177l-274 -21q-90 -8 -91 -84v-55zM61 948v94q-1 84 55 134t150 51q287 -2 287 0q2 63 0 65q0 102 -125 103q-91 -1 -189 -7t-153 -8v86q35 4 143 26t212 22q105 1 172 -52t67 -159v-529h-82l-43 100l-18 -10
q-163 -98 -280 -98q-75 0 -135 48t-61 134zM61 549v119h623v-119h-623z" />
    <glyph glyph-name="guillemotleft" unicode="&#xab;" horiz-adv-x="1124" 
d="M483 725l422 416l107 -107l-318 -309l328 -319l-107 -107zM102 725l422 416l107 -107l-318 -309l328 -319l-106 -107z" />
    <glyph glyph-name="logicalnot" unicode="&#xac;" horiz-adv-x="1079" 
d="M102 524v152h875v-350h-152v198h-723z" />
    <glyph glyph-name="uni00AD" unicode="&#xad;" horiz-adv-x="724" 
d="M41 518v152h643v-152h-643z" />
    <glyph glyph-name="registered" unicode="&#xae;" horiz-adv-x="1660" 
d="M666 776h243q80 0 106 29q25 29 25 97t-12 96q-24 58 -119 59h-243v-281zM535 313v875h362q274 0 274 -262q0 -172 -75 -220q-38 -26 -58 -33t-63 -16l186 -344h-147l-187 349l-161 24v-373h-131zM244 754q0 -246 86 -433t248 -190h552q127 2 207 162t80 475t-69 457
q-29 59 -84 101t-134 42h-552q-156 0 -245 -135t-89 -479zM113 754q0 745 465 745h552q237 0 333 -214q85 -183 85 -513t-92 -542q-47 -108 -130 -169t-196 -61h-552q-109 0 -193 53t-134 133q-138 221 -138 568z" />
    <glyph glyph-name="macron" unicode="&#xaf;" horiz-adv-x="802" 
d="M102 1087v130h598v-130h-598z" />
    <glyph glyph-name="degree" unicode="&#xb0;" horiz-adv-x="620" 
d="M199 1294q1 -46 33 -78t78 -32t79 33t33 79t-33 78q-33 33 -78 33t-79 -34t-33 -79zM102 1294q0 88 62 150t147 61q87 0 147 -61q60 -62 60 -150t-60 -148t-146 -60t-148 60t-62 148z" />
    <glyph glyph-name="plusminus" unicode="&#xb1;" horiz-adv-x="1079" 
d="M115 793v151h348v350h151v-350h353v-151h-353v-351h-151v351h-348zM115 178v152h852v-152h-852z" />
    <glyph glyph-name="twosuperior" unicode="&#xb2;" horiz-adv-x="792" 
d="M66 1692q-2 0 -2 24t2 49v23q254 31 374 31q266 0 267 -279q0 -72 -37 -154t-77 -138t-114 -130q-75 -74 -99 -94t-77 -66h402v-127h-633v119q16 14 83 64q235 177 320 292q100 128 99 220t-35 129q-35 37 -121 37h-352z" />
    <glyph glyph-name="threesuperior" unicode="&#xb3;" horiz-adv-x="831" 
d="M582 1075v47q0 137 -140 142l-290 10v96l290 14q141 6 142 132v45q0 123 -142 122h-381v89q108 36 217 36h183q125 0 186 -68t62 -171v-72q0 -68 -29 -116t-72 -64q100 -63 101 -193v-57q1 -119 -57 -181t-201 -63h-167q-97 0 -214 37l2 88l362 2q82 0 115 29t33 96z" />
    <glyph glyph-name="acute" unicode="&#xb4;" horiz-adv-x="495" 
d="M41 1087l219 273h195l-273 -273h-141z" />
    <glyph glyph-name="uni00B5" unicode="&#xb5;" horiz-adv-x="1216" 
d="M184 -553v1640h152v-757q0 -96 51 -146t131 -51q140 0 261 50q42 17 143 67v837h151v-1087h-106l-45 127q-6 -2 -45 -26q-39 -23 -49 -27t-44 -24q-35 -20 -49 -23q-14 -4 -68 -24t-155 -21q-101 0 -176 51v-586h-152z" />
    <glyph glyph-name="paragraph" unicode="&#xb6;" horiz-adv-x="1189" 
d="M233 1026q-1 -84 53 -116t115 -31h111v469h-111q-90 0 -129 -43t-39 -97v-182zM82 1022v190q0 137 95 212t224 75h748v-156h-141v-1343h-152v1348h-192v-1901h-152v1315l-18 -10q-45 -25 -93 -25q-151 0 -235 84t-84 211z" />
    <glyph glyph-name="periodcentered" unicode="&#xb7;" horiz-adv-x="557" 
d="M174 725v117q0 51 49 51h109q51 0 51 -51v-117q0 -47 -51 -47h-109q-49 0 -49 47z" />
    <glyph glyph-name="cedilla" unicode="&#xb8;" horiz-adv-x="516" 
d="M414 -76q0 -160 -43 -219t-164 -59h-105v75l109 31q66 29 65 172h138z" />
    <glyph glyph-name="onesuperior" unicode="&#xb9;" horiz-adv-x="555" 
d="M422 1806v-975h-127v834l-262 -72v101l262 112h127z" />
    <glyph glyph-name="ordmasculine" unicode="&#xba;" horiz-adv-x="798" 
d="M399 1382q-67 0 -95 -4t-60 -28t-44 -76q-12 -54 -12 -143t14 -138q23 -82 110 -97q30 -5 91 -5t91 4t60 26q32 23 43 71t13 137t-9 143t-44 77q-33 25 -63 29t-95 4zM84 555v119h629v-119h-629zM401 764q-193 0 -267 80t-73 291q0 210 73 292q74 82 268 82t265 -82
t71 -292q0 -211 -72 -291t-265 -80z" />
    <glyph glyph-name="guillemotright" unicode="&#xbb;" horiz-adv-x="1124" 
d="M483 406l328 319l-317 309l106 107l422 -416l-432 -426zM102 406l328 319l-317 309l106 107l422 -416l-432 -426z" />
    <glyph glyph-name="onequarter" unicode="&#xbc;" horiz-adv-x="1849" 
d="M1559 377v248l57 98h70v-346h120v-107l-120 -26v-246h-127v246h-498l-45 49l428 678h145l-370 -594h340zM451 0l712 1499h133l-712 -1499h-133zM422 1499v-975h-127v834l-262 -72v100l262 113h127z" />
    <glyph glyph-name="onehalf" unicode="&#xbd;" horiz-adv-x="1994" 
d="M1270 860q-2 0 -2 25t2 49v22q254 31 375 31q266 0 266 -278q0 -72 -37 -154t-77 -138t-114 -130q-75 -74 -99 -94t-77 -66h402v-127h-633v119q16 14 83 64q228 170 324 294q95 124 95 216q0 93 -35 130t-121 37h-352zM440 0l713 1499h133l-713 -1499h-133zM422 1499
v-975h-127v834l-262 -72v100l262 113h127z" />
    <glyph glyph-name="threequarters" unicode="&#xbe;" horiz-adv-x="2086" 
d="M1741 371v256l49 98h70v-354h120v-99l-120 -26v-246h-119v246h-506l-45 49l426 676h137l-371 -600h359zM653 0l713 1499h133l-713 -1499h-133zM582 768v47q0 137 -140 141l-290 11v96l290 14q141 6 142 131v45q0 123 -142 123h-381v88q111 37 219 37h181q125 -1 186 -69
t62 -170v-72q0 -68 -29 -116t-72 -64q100 -63 101 -193v-57q1 -119 -57 -181t-201 -63h-167q-97 0 -214 37l2 88l362 2q82 0 115 29t33 96z" />
    <glyph glyph-name="questiondown" unicode="&#xbf;" horiz-adv-x="1112" 
d="M553 911q0 19 15 35t34 19h100q49 -4 50 -47v-111q-4 -49 -43 -51h-115q-37 12 -41 51v104zM696 -549q-22 0 -96 -3q-76 -3 -111 3q-408 -2 -407 385v209q-2 176 139 261t354 52v207h158l2 -332q-195 4 -281 1t-137 -62t-57 -141q-2 -164 -2 -205q0 -92 62 -160t192 -63
l559 2q-6 -1 -4 -55t0 -58q-104 -15 -157 -21q-52 -5 -122 -13t-92 -7z" />
    <glyph glyph-name="Agrave" unicode="&#xc0;" horiz-adv-x="1372" 
d="M469 569h489l-241 699zM92 0l551 1499h152l526 -1499h-180l-129 418h-598l-135 -418h-187zM377 1905h192l222 -273h-144z" />
    <glyph glyph-name="Aacute" unicode="&#xc1;" horiz-adv-x="1372" 
d="M469 569h489l-241 699zM92 0l551 1499h152l526 -1499h-180l-129 418h-598l-135 -418h-187zM647 1632l221 273h193l-270 -273h-144z" />
    <glyph glyph-name="Acircumflex" unicode="&#xc2;" horiz-adv-x="1372" 
d="M469 569h489l-241 699zM92 0l551 1499h152l526 -1499h-180l-129 418h-598l-135 -418h-187zM420 1632l239 266h146l213 -266h-146l-145 146l-160 -146h-147z" />
    <glyph glyph-name="Atilde" unicode="&#xc3;" horiz-adv-x="1372" 
d="M469 569h489l-241 699zM92 0l551 1499h152l526 -1499h-180l-129 418h-598l-135 -418h-187zM707 1671q-61 33 -110 33t-102 -30t-79 -42l-43 84q55 45 83 67q28 21 74 43t93 20q48 -2 117 -37q69 -34 94 -33q45 -2 186 73l45 -86q-6 -4 -50 -40q-112 -92 -180 -88
q-67 3 -128 36z" />
    <glyph glyph-name="Adieresis" unicode="&#xc4;" horiz-adv-x="1372" 
d="M469 569h489l-241 699zM92 0l551 1499h152l526 -1499h-180l-129 418h-598l-135 -418h-187zM877 1737q1 43 31 73t73 29q43 0 73 -30q30 -31 30 -73t-30 -73t-73 -31t-74 31q-30 31 -30 74zM354 1737q0 43 31 73t74 29q43 0 73 -30q30 -31 29 -73q0 -42 -30 -73
q-31 -31 -73 -31t-73 31t-31 74z" />
    <glyph glyph-name="Aring" unicode="&#xc5;" horiz-adv-x="1372" 
d="M469 569h489l-241 699zM512 1719q0 73 60 134t146 61t147 -60q61 -62 61 -134q1 -139 -102 -197q-30 -17 -62 -24h33l526 -1499h-180l-129 418h-598l-135 -418h-187l551 1499h35q-33 7 -63 24q-103 60 -103 196zM606 1705q0 -46 34 -79t80 -33t79 33t32 79q0 46 -32 79
q-33 33 -79 33t-80 -33t-34 -79z" />
    <glyph glyph-name="AE" unicode="&#xc6;" horiz-adv-x="1886" 
d="M885 616v719l-355 -719h355zM1794 1346h-655q-73 0 -87 -32t-16 -77v-424l676 -20v-121l-676 -21v-403q0 -62 25 -79t43 -17h37h22l629 -2v-125l-629 -35q-279 -16 -278 258v217h-430l-228 -465h-166l611 1237q55 108 91 144q36 35 56 55t52 31q33 11 51 19t54 11
q36 2 51 3t56 0t56 -1l655 -33v-120z" />
    <glyph glyph-name="Ccedilla" unicode="&#xc7;" horiz-adv-x="1183" 
d="M113 754q0 389 105 575t394 187q223 0 500 -52v-121h-18q-61 7 -158 11q-96 4 -165 7t-181 3t-184 -50t-107 -182t-35 -382q0 -610 348 -611l500 15v-121q-242 -45 -500 -45q-499 0 -499 766zM621 -74h137q0 -160 -43 -219t-164 -59h-105v76l109 30q66 29 66 172z" />
    <glyph glyph-name="Egrave" unicode="&#xc8;" horiz-adv-x="1161" 
d="M164 252v981q0 141 73 206t185 60l647 -33v-118h-647q-49 0 -75 -20t-29 -38q-3 -20 -3 -57v-410l672 -20v-121l-672 -20v-410q0 -51 23 -76t43 -28t61 -3h627v-116l-627 -35q-278 -16 -278 258zM360 1894h195l219 -272h-141z" />
    <glyph glyph-name="Eacute" unicode="&#xc9;" horiz-adv-x="1161" 
d="M164 252v981q0 141 73 206t185 60l647 -33v-118h-647q-49 0 -75 -20t-29 -38q-3 -20 -3 -57v-410l672 -20v-121l-672 -20v-410q0 -51 23 -76t43 -28t61 -3h627v-116l-627 -35q-278 -16 -278 258zM588 1622l219 272h194l-272 -272h-141z" />
    <glyph glyph-name="Ecircumflex" unicode="&#xca;" horiz-adv-x="1161" 
d="M164 252v981q0 141 73 206t185 60l647 -33v-118h-647q-49 0 -75 -20t-29 -38q-3 -20 -3 -57v-410l672 -20v-121l-672 -20v-410q0 -51 23 -76t43 -28t61 -3h627v-116l-627 -35q-278 -16 -278 258zM348 1632l240 266h145l213 -266h-145l-146 146l-159 -146h-148z" />
    <glyph glyph-name="Edieresis" unicode="&#xcb;" horiz-adv-x="1161" 
d="M164 252v981q0 141 73 206t185 60l647 -33v-118h-647q-49 0 -75 -20t-29 -38q-3 -20 -3 -57v-410l672 -20v-121l-672 -20v-410q0 -51 23 -76t43 -28t61 -3h627v-116l-627 -35q-278 -16 -278 258zM807 1726q0 43 31 73q32 30 74 30t72 -30t30 -73q0 -44 -30 -74t-73 -30
t-73 30t-31 74zM285 1726q0 43 30 73q31 30 74 30t73 -30t30 -73q0 -44 -30 -74t-73 -30t-73 30t-31 74z" />
    <glyph glyph-name="Igrave" unicode="&#xcc;" horiz-adv-x="438" 
d="M164 0v1499h151v-1499h-151zM-102 1905h192l221 -273h-143z" />
    <glyph glyph-name="Iacute" unicode="&#xcd;" horiz-adv-x="438" 
d="M164 0v1499h151v-1499h-151zM168 1632l221 273h193l-271 -273h-143z" />
    <glyph glyph-name="Icircumflex" unicode="&#xce;" horiz-adv-x="438" 
d="M164 0v1499h151v-1499h-151zM-59 1632l239 266h146l213 -266h-146l-145 146l-160 -146h-147z" />
    <glyph glyph-name="Idieresis" unicode="&#xcf;" horiz-adv-x="438" 
d="M164 0v1499h151v-1499h-151zM397 1737q0 43 31 73t74 29q42 0 72 -30q30 -31 30 -73t-30 -73t-72 -31t-74 31q-31 31 -31 74zM-125 1737q0 43 31 73t74 29q42 0 72 -30q30 -31 30 -73t-30 -73t-72 -31t-74 31q-31 31 -31 74z" />
    <glyph glyph-name="Eth" unicode="&#xd0;" horiz-adv-x="1345" 
d="M315 158h408q190 0 282 165q91 165 91 422q0 592 -373 592l-408 -2v-516h285v-110h-285v-551zM31 709v110h133v678q0 2 559 2q225 0 343 -129t152 -297q35 -168 35 -302q0 -395 -172 -607q-59 -74 -151 -119t-207 -45h-559v709h-133z" />
    <glyph glyph-name="Ntilde" unicode="&#xd1;" horiz-adv-x="1392" 
d="M164 0v1499h155l799 -1216v1216h152v-1499h-152l-801 1217v-1217h-153zM705 1671q-61 33 -110 33t-102 -30t-79 -42l-43 84q55 45 83 67q28 21 74 43t93 20q48 -2 117 -37q69 -34 93 -33q45 -2 187 73l45 -86q-6 -4 -50 -40q-112 -92 -180 -88q-67 3 -128 36z" />
    <glyph glyph-name="Ograve" unicode="&#xd2;" horiz-adv-x="1384" 
d="M285 690q0 -150 19 -266q20 -116 76 -180t130 -82t190 -18t183 12q147 30 202 158q55 127 55 436q1 309 -48 422q-20 46 -37 77q-27 52 -106 85q-43 20 -110 22t-124 2t-125 -2t-101 -18q-33 -14 -65 -36t-50 -53q-17 -31 -38 -77q-51 -117 -51 -482zM133 741
q0 346 76 510q39 85 85 137q81 92 257 113q68 8 158 8q279 0 384 -82t152 -243t47 -400q0 -415 -95 -594q-79 -147 -279 -184q-82 -14 -194 -14t-181 8q-179 20 -258 110q-105 118 -135 338q-16 124 -17 293zM373 1905h192l221 -273h-143z" />
    <glyph glyph-name="Oacute" unicode="&#xd3;" horiz-adv-x="1384" 
d="M285 690q0 -150 19 -266q20 -116 76 -180t130 -82t190 -18t183 12q147 30 202 158q55 127 55 436q1 309 -48 422q-20 46 -37 77q-27 52 -106 85q-43 20 -110 22t-124 2t-125 -2t-101 -18q-33 -14 -65 -36t-50 -53q-17 -31 -38 -77q-51 -117 -51 -482zM133 741
q0 346 76 510q39 85 85 137q81 92 257 113q68 8 158 8q279 0 384 -82t152 -243t47 -400q0 -415 -95 -594q-79 -147 -279 -184q-82 -14 -194 -14t-181 8q-179 20 -258 110q-105 118 -135 338q-16 124 -17 293zM643 1632l221 273h193l-271 -273h-143z" />
    <glyph glyph-name="Ocircumflex" unicode="&#xd4;" horiz-adv-x="1384" 
d="M285 690q0 -150 19 -266q20 -116 76 -180t130 -82t190 -18t183 12q147 30 202 158q55 127 55 436q1 309 -48 422q-20 46 -37 77q-27 52 -106 85q-43 20 -110 22t-124 2t-125 -2t-101 -18q-33 -14 -65 -36t-50 -53q-17 -31 -38 -77q-51 -117 -51 -482zM133 741
q0 346 76 510q39 85 85 137q81 92 257 113q68 8 158 8q279 0 384 -82t152 -243t47 -400q0 -415 -95 -594q-79 -147 -279 -184q-82 -14 -194 -14t-181 8q-179 20 -258 110q-105 118 -135 338q-16 124 -17 293zM416 1632l239 266h146l213 -266h-146l-145 146l-160 -146h-147z
" />
    <glyph glyph-name="Otilde" unicode="&#xd5;" horiz-adv-x="1384" 
d="M285 690q0 -150 19 -266q20 -116 76 -180t130 -82t190 -18t183 12q147 30 202 158q55 127 55 436q1 309 -48 422q-20 46 -37 77q-27 52 -106 85q-43 20 -110 22t-124 2t-125 -2t-101 -18q-33 -14 -65 -36t-50 -53q-17 -31 -38 -77q-51 -117 -51 -482zM133 741
q0 346 76 510q39 85 85 137q81 92 257 113q68 8 158 8q279 0 384 -82t152 -243t47 -400q0 -415 -95 -594q-79 -147 -279 -184q-82 -14 -194 -14t-181 8q-179 20 -258 110q-105 118 -135 338q-16 124 -17 293zM702 1671q-62 33 -110 33q-49 0 -101 -30q-53 -30 -79 -42
l-43 84q55 45 83 67q28 21 74 43t93 20q48 -2 117 -37q69 -34 93 -33q45 -2 187 73l45 -86q-6 -4 -50 -40q-113 -92 -180 -89q-67 4 -129 37z" />
    <glyph glyph-name="Odieresis" unicode="&#xd6;" horiz-adv-x="1384" 
d="M285 690q0 -150 19 -266q20 -116 76 -180t130 -82t190 -18t183 12q147 30 202 158q55 127 55 436q1 309 -48 422q-20 46 -37 77q-27 52 -106 85q-43 20 -110 22t-124 2t-125 -2t-101 -18q-33 -14 -65 -36t-50 -53q-17 -31 -38 -77q-51 -117 -51 -482zM133 741
q0 346 76 510q39 85 85 137q81 92 257 113q68 8 158 8q279 0 384 -82t152 -243t47 -400q0 -415 -95 -594q-79 -147 -279 -184q-82 -14 -194 -14t-181 8q-179 20 -258 110q-105 118 -135 338q-16 124 -17 293zM872 1737q0 43 31 73t74 29q43 0 73 -30q30 -31 30 -73t-30 -73
t-73 -31t-74 31t-31 74zM350 1737q0 43 31 73t74 29q43 0 73 -30q30 -31 29 -73q0 -42 -30 -73q-31 -31 -73 -31t-73 31t-31 74z" />
    <glyph glyph-name="multiply" unicode="&#xd7;" horiz-adv-x="937" 
d="M115 481l247 246l-247 248l106 108l248 -247l250 247l106 -106l-250 -250l248 -246l-106 -108l-248 248l-246 -246z" />
    <glyph glyph-name="Oslash" unicode="&#xd8;" horiz-adv-x="1384" 
d="M418 205q84 -61 295 -62q129 0 203 22q166 49 204 266q20 116 21 308q0 348 -70 482zM714 1358q-228 0 -286 -50q-84 -74 -107 -179q-36 -161 -36 -437q0 -277 63 -401l651 1016q-53 40 -170 49q-39 2 -115 2zM713 1509q258 0 368 -75l43 65h125l-90 -139
q133 -172 133 -621q0 -366 -97 -549q-79 -147 -280 -184q-82 -14 -202 -14q-266 0 -381 78l-45 -70h-125l92 145q-121 164 -121 571t101 599q44 82 124 126t158 56t197 12z" />
    <glyph glyph-name="Ugrave" unicode="&#xd9;" horiz-adv-x="1386" 
d="M164 655v844h151v-844q0 -186 24 -296q24 -111 87 -155t117 -54t137 -9q82 0 140 2t86 15q83 36 108 72q53 76 67 140q29 132 29 285v844h154v-844q0 -190 -36 -322t-82 -198q-46 -67 -131 -101t-141 -39t-108 -5h-66q-186 0 -225 13t-81 29t-66 41q-24 27 -54 61
q-31 34 -47 84q-44 139 -54 239q-9 100 -9 198zM371 1905h194l219 -273h-141z" />
    <glyph glyph-name="Uacute" unicode="&#xda;" horiz-adv-x="1386" 
d="M164 655v844h151v-844q0 -186 24 -296q24 -111 87 -155t117 -54t137 -9q82 0 140 2t86 15q83 36 108 72q53 76 67 140q29 132 29 285v844h154v-844q0 -190 -36 -322t-82 -198q-46 -67 -131 -101t-141 -39t-108 -5h-66q-186 0 -225 13t-81 29t-66 41q-24 27 -54 61
q-31 34 -47 84q-44 139 -54 239q-9 100 -9 198zM643 1632l219 273h195l-273 -273h-141z" />
    <glyph glyph-name="Ucircumflex" unicode="&#xdb;" horiz-adv-x="1386" 
d="M164 655v844h151v-844q0 -186 24 -296q24 -111 87 -155t117 -54t137 -9q82 0 140 2t86 15q83 36 108 72q53 76 67 140q29 132 29 285v844h154v-844q0 -190 -36 -322t-82 -198q-46 -67 -131 -101t-141 -39t-108 -5h-66q-186 0 -225 13t-81 29t-66 41q-24 27 -54 61
q-31 34 -47 84q-44 139 -54 239q-9 100 -9 198zM414 1632l241 266h144l213 -266h-144l-147 146l-160 -146h-147z" />
    <glyph glyph-name="Udieresis" unicode="&#xdc;" horiz-adv-x="1386" 
d="M164 655v844h151v-844q0 -186 24 -296q24 -111 87 -155t117 -54t137 -9q82 0 140 2t86 15q83 36 108 72q53 76 67 140q29 132 29 285v844h154v-844q0 -190 -36 -322t-82 -198q-46 -67 -131 -101t-141 -39t-108 -5h-66q-186 0 -225 13t-81 29t-66 41q-24 27 -54 61
q-31 34 -47 84q-44 139 -54 239q-9 100 -9 198zM872 1737q0 43 30 73t74 29q44 0 73 -30q29 -31 29 -73t-30 -73t-72 -31t-73 31t-31 74zM348 1726q0 76 65 105q19 8 51 8t62 -30q30 -31 31 -73q0 -42 -31 -73q-32 -31 -74 -31t-73 31t-31 63z" />
    <glyph glyph-name="Yacute" unicode="&#xdd;" horiz-adv-x="1290" 
d="M721 0h-152v532l-477 967h166l387 -786l428 786h166l-518 -967v-532zM594 1632l221 273h193l-271 -273h-143z" />
    <glyph glyph-name="Thorn" unicode="&#xde;" horiz-adv-x="1140" 
d="M274 457h404q94 -3 150 63t57 252q-4 192 -80 241q-56 36 -127 38h-404v-594zM274 0h-151v1493h151v-289h404q360 -4 360 -436q0 -326 -169 -420q-77 -43 -153 -43h-155q-79 0 -287 39v-344z" />
    <glyph glyph-name="germandbls" unicode="&#xdf;" horiz-adv-x="1167" 
d="M975 367q0 43 -44 67q-45 24 -107 36q-62 14 -126 34t-107 72q-44 52 -44 143q0 90 46 152t202 178q102 78 102 204q0 186 -317 187q-134 0 -220 -68t-86 -213v-1159h-151v1159q0 184 123 308t334 124q145 0 247 -38q103 -38 151 -98t64 -135q31 -145 -59 -285
q-41 -65 -96 -103q-18 -16 -60 -48q-86 -67 -107 -102t-21 -70q-1 -60 151 -94q64 -14 126 -36t106 -75q44 -54 44 -140v-97q0 -159 -105 -222q-105 -64 -219 -64t-222 18t-131 21v122l362 -10q63 0 113 38q49 38 51 97v97z" />
    <glyph glyph-name="agrave" unicode="&#xe0;" horiz-adv-x="1062" 
d="M233 268q0 -129 121 -129q129 0 379 78l76 27v293l-455 -33q-61 -6 -91 -43t-30 -90v-103zM82 258v125q0 125 73 199t199 73q455 -2 455 0q2 135 0 138q0 168 -176 168t-516 -25v111q207 57 530 61q137 2 225 -77t89 -238v-793h-113l-39 131l-31 -14q-184 -89 -279 -109
q-94 -20 -145 -20q-116 0 -194 72t-78 198zM203 1503h194l219 -272h-141z" />
    <glyph glyph-name="aacute" unicode="&#xe1;" horiz-adv-x="1062" 
d="M233 268q0 -129 121 -129q129 0 379 78l76 27v293l-455 -33q-61 -6 -91 -43t-30 -90v-103zM82 258v125q0 125 73 199t199 73q455 -2 455 0q2 135 0 138q0 168 -176 168t-516 -25v111q207 57 530 61q137 2 225 -77t89 -238v-793h-113l-39 131l-31 -14q-184 -89 -279 -109
q-94 -20 -145 -20q-116 0 -194 72t-78 198zM465 1231l219 272h195l-273 -272h-141z" />
    <glyph glyph-name="acircumflex" unicode="&#xe2;" horiz-adv-x="1062" 
d="M233 268q0 -129 121 -129q129 0 379 78l76 27v293l-455 -33q-61 -6 -91 -43t-30 -90v-103zM82 258v125q0 125 73 199t199 73q455 -2 455 0q2 135 0 138q0 168 -176 168t-516 -25v111q207 57 530 61q137 2 225 -77t89 -238v-793h-113l-39 131l-31 -14q-184 -89 -279 -109
q-94 -20 -145 -20q-116 0 -194 72t-78 198zM240 1231l239 266h146l213 -266h-146l-145 145l-160 -145h-147z" />
    <glyph glyph-name="atilde" unicode="&#xe3;" horiz-adv-x="1062" 
d="M233 268q0 -129 121 -129q129 0 379 78l76 27v293l-455 -33q-61 -6 -91 -43t-30 -90v-103zM82 258v125q0 125 73 199t199 73q455 -2 455 0q2 135 0 138q0 168 -176 168t-516 -25v111q207 57 530 61q137 2 225 -77t89 -238v-793h-113l-39 131l-31 -14q-184 -89 -279 -109
q-94 -20 -145 -20q-116 0 -194 72t-78 198zM516 1270q-62 33 -109 33q-48 -1 -102 -31q-53 -30 -80 -41l-43 84q55 45 83 67t74 42q46 22 94 20t117 -36t93 -34q45 -2 186 74l45 -86q-6 -4 -60 -48t-121 -73q-69 -29 -177 29z" />
    <glyph glyph-name="adieresis" unicode="&#xe4;" horiz-adv-x="1062" 
d="M233 268q0 -129 121 -129q129 0 379 78l76 27v293l-455 -33q-61 -6 -91 -43t-30 -90v-103zM82 258v125q0 125 73 199t199 73q455 -2 455 0q2 135 0 138q0 168 -176 168t-516 -25v111q207 57 530 61q137 2 225 -77t89 -238v-793h-113l-39 131l-31 -14q-184 -89 -279 -109
q-94 -20 -145 -20q-116 0 -194 72t-78 198zM692 1335q0 43 31 73t74 30t73 -30t29 -73q0 -43 -30 -73q-31 -30 -73 -31q-42 1 -73 31t-31 73zM170 1335q0 43 31 73t73 30t73 -30q30 -30 30 -73t-30 -73t-73 -31q-44 1 -74 31t-30 73z" />
    <glyph glyph-name="aring" unicode="&#xe5;" horiz-adv-x="1062" 
d="M233 268q0 -129 121 -129q129 0 379 78l76 27v293l-455 -33q-61 -6 -91 -43t-30 -90v-103zM82 258v125q0 125 73 199t199 73q455 -2 455 0q2 135 0 138q0 168 -176 168t-516 -25v111q207 57 530 61q137 2 225 -77t89 -238v-793h-113l-39 131l-31 -14q-184 -89 -279 -109
q-94 -20 -145 -20q-116 0 -194 72t-78 198zM426 1379q0 -46 33 -79q33 -32 80 -32t79 32t31 78q0 47 -33 80q-32 33 -78 33t-79 -33t-33 -79zM330 1378q0 88 61 150t147 61q86 0 147 -61q60 -62 60 -150t-60 -148t-146 -60q-85 0 -147 60t-62 148z" />
    <glyph glyph-name="ae" unicode="&#xe6;" horiz-adv-x="1783" 
d="M963 623h458q129 0 129 100q0 158 -46 196q-46 37 -236 37t-231 -43q-60 -63 -67 -136q-7 -72 -7 -154zM233 281q0 -129 121 -129q132 0 379 77l76 27v262l-455 -33q-61 -6 -91 -43t-30 -90v-71zM82 270v82q0 125 73 199t199 74q455 -2 455 0q2 178 0 180q0 168 -171 168
t-521 -25v111q174 57 530 61q176 4 260 -119q53 63 143 85t219 22q130 0 193 -10q62 -10 124 -47q116 -69 116 -328q0 -250 -281 -250h-458q0 -190 43 -255t163 -64q373 0 512 20v-115q-203 -57 -512 -57q-123 0 -186 34t-129 109l-35 -14q-63 -29 -211 -80t-259 -51
t-189 72t-78 198z" />
    <glyph glyph-name="ccedilla" unicode="&#xe7;" horiz-adv-x="1024" 
d="M670 -76q0 -160 -43 -219t-164 -59h-105v75l109 31q66 29 65 172h138zM102 545q0 173 26 287t77 170t110 78t181 22t432 -58v-110q-286 16 -398 16t-139 -6q-70 -16 -104 -105q-33 -89 -33 -310t47 -307t160 -85q211 0 403 17l78 6v-115q-197 -55 -481 -59q-83 0 -143 22
t-111 78q-51 57 -78 172t-27 287z" />
    <glyph glyph-name="egrave" unicode="&#xe8;" horiz-adv-x="1075" 
d="M254 610h459q129 0 129 101q0 157 -46 195t-237 38t-230 -43q-60 -63 -67 -136q-8 -73 -8 -155zM102 549q0 180 25 290t89 166q66 56 144 73q78 18 204 18t190 -10q62 -10 124 -48q116 -70 115 -327q0 -250 -280 -250h-459q0 -190 43 -255t164 -65q373 0 512 21v-115
q-203 -57 -512 -57q-207 0 -283 118t-76 441zM233 1493h197l217 -272h-139z" />
    <glyph glyph-name="eacute" unicode="&#xe9;" horiz-adv-x="1075" 
d="M254 610h459q129 0 129 101q0 157 -46 195t-237 38t-230 -43q-60 -63 -67 -136q-8 -73 -8 -155zM102 549q0 180 25 290t89 166q66 56 144 73q78 18 204 18t190 -10q62 -10 124 -48q116 -70 115 -327q0 -250 -280 -250h-459q0 -190 43 -255t164 -65q373 0 512 21v-115
q-203 -57 -512 -57q-207 0 -283 118t-76 441zM487 1221l218 272h196l-274 -272h-140z" />
    <glyph glyph-name="ecircumflex" unicode="&#xea;" horiz-adv-x="1075" 
d="M254 610h459q129 0 129 101q0 157 -46 195t-237 38t-230 -43q-60 -63 -67 -136q-8 -73 -8 -155zM102 549q0 180 25 290t89 166q66 56 144 73q78 18 204 18t190 -10q62 -10 124 -48q116 -70 115 -327q0 -250 -280 -250h-459q0 -190 43 -255t164 -65q373 0 512 21v-115
q-203 -57 -512 -57q-207 0 -283 118t-76 441zM262 1221l240 266h145l213 -266h-145l-146 145l-159 -145h-148z" />
    <glyph glyph-name="edieresis" unicode="&#xeb;" horiz-adv-x="1075" 
d="M254 610h459q129 0 129 101q0 157 -46 195t-237 38t-230 -43q-60 -63 -67 -136q-8 -73 -8 -155zM102 549q0 180 25 290t89 166q66 56 144 73q78 18 204 18t190 -10q62 -10 124 -48q116 -70 115 -327q0 -250 -280 -250h-459q0 -190 43 -255t164 -65q373 0 512 21v-115
q-203 -57 -512 -57q-207 0 -283 118t-76 441zM713 1325q0 43 30 73q31 30 74 30t73 -30t30 -73t-30 -74t-73 -31t-74 31q-30 31 -30 74zM190 1325q0 43 31 73t74 30t73 -30t30 -73t-30 -74t-73 -31t-74 32q-31 30 -31 73z" />
    <glyph glyph-name="igrave" unicode="&#xec;" horiz-adv-x="397" 
d="M123 0v1087h151v-1087h-151zM-143 1493h192l221 -272h-143z" />
    <glyph glyph-name="iacute" unicode="&#xed;" horiz-adv-x="397" 
d="M123 0v1087h151v-1087h-151zM127 1221l221 272h193l-271 -272h-143z" />
    <glyph glyph-name="icircumflex" unicode="&#xee;" horiz-adv-x="397" 
d="M123 0v1087h151v-1087h-151zM-100 1221l239 266h146l213 -266h-146l-145 145l-160 -145h-147z" />
    <glyph glyph-name="idieresis" unicode="&#xef;" horiz-adv-x="397" 
d="M123 0v1087h151v-1087h-151zM356 1325q0 43 31 73t74 30t73 -30t30 -73t-30 -74t-73 -31t-74 32q-31 30 -31 73zM-166 1325q0 43 31 73t74 30t73 -30t29 -73q0 -43 -30 -74q-31 -31 -73 -31t-73 32q-31 30 -31 73z" />
    <glyph glyph-name="eth" unicode="&#xf0;" horiz-adv-x="1101" 
d="M446 936q-74 0 -116 -28t-70 -116q-27 -88 -27 -236q-1 -148 15 -229t49 -117t65 -45t84 -9h205q123 0 170 95t47 308t-44 295t-173 82h-205zM446 0q-204 0 -284 128t-80 408t83 415q83 136 281 136h205q115 0 144 -30q-51 170 -152 270l-297 -119l-49 123l223 90
q-109 57 -266 49v134q270 0 428 -121l242 96l51 -123l-187 -74q231 -285 232 -841q0 -291 -96 -416t-273 -125h-205z" />
    <glyph glyph-name="ntilde" unicode="&#xf1;" 
d="M123 0v1087h106l45 -126q6 1 45 25t49 28t44 23q35 19 49 23t70 26q56 20 145 20q156 0 246 -102t90 -246v-758h-152v758q0 96 -51 146t-131 50q-147 0 -261 -50q-42 -17 -143 -66v-838h-151zM221 1313q55 45 83 67t74 42q46 22 94 20t117 -36t93 -34q45 -2 186 74
l45 -86q-6 -4 -50 -40q-115 -94 -180 -89q-65 4 -127 37t-112 32t-102 -31q-51 -30 -78 -40z" />
    <glyph glyph-name="ograve" unicode="&#xf2;" horiz-adv-x="1163" 
d="M254 520q0 -125 19 -205q19 -81 67 -117t99 -46q49 -10 143 -10t146 10t98 48t64 116t19 218q0 140 -15 224t-60 126q-46 42 -98 52t-142 10t-135 -6q-117 -16 -157 -96q-48 -98 -48 -324zM102 544q0 314 104 434t378 120q272 0 374 -122t102 -438t-102 -432t-374 -116
t-377 120t-105 434zM258 1493h197l217 -272h-140z" />
    <glyph glyph-name="oacute" unicode="&#xf3;" horiz-adv-x="1163" 
d="M254 520q0 -125 19 -205q19 -81 67 -117t99 -46q49 -10 143 -10t146 10t98 48t64 116t19 218q0 140 -15 224t-60 126q-46 42 -98 52t-142 10t-135 -6q-117 -16 -157 -96q-48 -98 -48 -324zM102 544q0 314 104 434t378 120q272 0 374 -122t102 -438t-102 -432t-374 -116
t-377 120t-105 434zM512 1221l217 272h197l-275 -272h-139z" />
    <glyph glyph-name="ocircumflex" unicode="&#xf4;" horiz-adv-x="1163" 
d="M254 520q0 -125 19 -205q19 -81 67 -117t99 -46q49 -10 143 -10t146 10t98 48t64 116t19 218q0 140 -15 224t-60 126q-46 42 -98 52t-142 10t-135 -6q-117 -16 -157 -96q-48 -98 -48 -324zM102 544q0 314 104 434t378 120q272 0 374 -122t102 -438t-102 -432t-374 -116
t-377 120t-105 434zM293 1221l239 266h146l213 -266h-146l-145 145l-160 -145h-147z" />
    <glyph glyph-name="otilde" unicode="&#xf5;" horiz-adv-x="1163" 
d="M254 520q0 -125 19 -205q19 -81 67 -117t99 -46q49 -10 143 -10t146 10t98 48t64 116t19 218q0 140 -15 224t-60 126q-46 42 -98 52t-142 10t-135 -6q-117 -16 -157 -96q-48 -98 -48 -324zM102 544q0 314 104 434t378 120q272 0 374 -122t102 -438t-102 -432t-374 -116
t-377 120t-105 434zM254 1305q55 45 83 67t74 42q46 22 94 20t117 -36t93 -34q45 -2 186 74l45 -86q-6 -4 -50 -40q-115 -94 -180 -89q-66 4 -128 37t-111 32q-50 -1 -102 -31t-78 -40z" />
    <glyph glyph-name="odieresis" unicode="&#xf6;" horiz-adv-x="1163" 
d="M254 520q0 -125 19 -205q19 -81 67 -117t99 -46q49 -10 143 -10t146 10t98 48t64 116t19 218q0 140 -15 224t-60 126q-46 42 -98 52t-142 10t-135 -6q-117 -16 -157 -96q-48 -98 -48 -324zM102 544q0 314 104 434t378 120q272 0 374 -122t102 -438t-102 -432t-374 -116
t-377 120t-105 434zM741 1325q0 43 31 73t74 30t73 -30q29 -30 29 -73t-30 -74t-72 -31q-43 0 -74 32q-31 30 -31 73zM219 1325q0 43 31 73t74 30q42 0 72 -30t30 -73t-30 -74t-72 -31t-74 32q-31 30 -31 73z" />
    <glyph glyph-name="divide" unicode="&#xf7;" horiz-adv-x="1056" 
d="M434 967v110q0 51 49 51h103q47 0 47 -51v-110q0 -47 -47 -47h-103q-49 0 -49 47zM434 354v111q0 51 49 51h103q47 0 47 -51v-111q0 -47 -47 -47h-103q-49 0 -49 47zM102 647v152h852v-152h-852z" />
    <glyph glyph-name="oslash" unicode="&#xf8;" horiz-adv-x="1163" 
d="M548 141q128 1 180 11t98 48t64 116t19 212q0 236 -49 322l-498 -670q58 -39 186 -39zM254 496q0 -148 41 -236l485 662q-60 24 -168 24t-153 -6q-117 -16 -157 -96q-48 -99 -48 -348zM102 550q0 308 104 428t376 120q188 0 288 -51l31 40h135l-80 -108
q104 -121 104 -439t-102 -434q-102 -117 -376 -116q-205 0 -312 65l-41 -55h-125l91 125q-93 117 -93 425z" />
    <glyph glyph-name="ugrave" unicode="&#xf9;" 
d="M102 330v757h152v-757q0 -96 51 -146t131 -51q140 0 261 50q42 17 143 67v837h151v-1087h-106l-45 127q-6 -2 -45 -26q-39 -23 -49 -27t-44 -24q-35 -20 -49 -23q-14 -5 -68 -25t-147 -20q-156 0 -246 102t-90 246zM225 1493h193l221 -272h-143z" />
    <glyph glyph-name="uacute" unicode="&#xfa;" 
d="M102 330v757h152v-757q0 -96 51 -146t131 -51q140 0 261 50q42 17 143 67v837h151v-1087h-106l-45 127q-6 -2 -45 -26q-39 -23 -49 -27t-44 -24q-35 -20 -49 -23q-14 -5 -68 -25t-147 -20q-156 0 -246 102t-90 246zM475 1221l221 272h193l-271 -272h-143z" />
    <glyph glyph-name="ucircumflex" unicode="&#xfb;" 
d="M102 330v757h152v-757q0 -96 51 -146t131 -51q140 0 261 50q42 17 143 67v837h151v-1087h-106l-45 127q-6 -2 -45 -26q-39 -23 -49 -27t-44 -24q-35 -20 -49 -23q-14 -5 -68 -25t-147 -20q-156 0 -246 102t-90 246zM248 1221l239 266h146l213 -266h-146l-145 145
l-160 -145h-147z" />
    <glyph glyph-name="udieresis" unicode="&#xfc;" 
d="M102 330v757h152v-757q0 -96 51 -146t131 -51q140 0 261 50q42 17 143 67v837h151v-1087h-106l-45 127q-6 -2 -45 -26q-39 -23 -49 -27t-44 -24q-35 -20 -49 -23q-14 -5 -68 -25t-147 -20q-156 0 -246 102t-90 246zM705 1325q0 43 30 73q31 30 74 30t73 -30t30 -73
t-30 -74t-73 -31t-74 31q-30 31 -30 74zM182 1325q0 43 31 73t74 30t73 -30t29 -73q0 -43 -30 -74q-31 -31 -73 -31t-73 32q-31 30 -31 73z" />
    <glyph glyph-name="yacute" unicode="&#xfd;" horiz-adv-x="1134" 
d="M43 1087h166l264 -849q14 -42 35 -60q21 -19 42 -23t37 -2q15 3 19 3l2 2l312 929h170l-480 -1431l-153 -209h-95l193 553q-176 0 -246 225zM496 1221l219 272h194l-272 -272h-141z" />
    <glyph glyph-name="thorn" unicode="&#xfe;" horiz-adv-x="1134" 
d="M694 131q102 0 155 91q52 91 52 305q0 215 -55 321t-152 106q-160 -10 -399 -102v-670q107 -32 236 -41q130 -10 163 -10zM143 -553v2155h152v-637q55 39 181 90t222 51t169 -47q183 -118 186 -512q0 -317 -96 -448q-37 -52 -105 -86q-68 -33 -152 -33t-198 22t-207 57
v-612h-152z" />
    <glyph glyph-name="ydieresis" unicode="&#xff;" horiz-adv-x="1134" 
d="M43 1087h166l264 -849q14 -42 35 -60q21 -19 42 -23t37 -2q15 3 19 3l2 2l312 929h170l-480 -1431l-153 -209h-95l193 553q-176 0 -246 225zM725 1325q0 43 30 73q29 30 73 30t73 -30t29 -73t-30 -74t-72 -31t-72 32q-30 30 -31 73zM201 1314q0 80 64 105q19 8 51 8
q32 1 63 -29t31 -73t-31 -74t-74 -31t-74 31q-30 31 -30 63z" />
    <glyph glyph-name="Amacron" unicode="&#x100;" horiz-adv-x="1372" 
d="M469 569h489l-241 699zM92 0l551 1499h152l526 -1499h-180l-129 418h-598l-135 -418h-187zM420 1632v129h598v-129h-598z" />
    <glyph glyph-name="amacron" unicode="&#x101;" horiz-adv-x="1062" 
d="M233 268q0 -129 121 -129q129 0 379 78l76 27v293l-455 -33q-61 -6 -91 -43t-30 -90v-103zM82 258v125q0 125 73 199t199 73q455 -2 455 0q2 135 0 138q0 168 -176 168t-516 -25v111q207 57 530 61q137 2 225 -77t89 -238v-793h-113l-39 131l-31 -14q-184 -89 -279 -109
q-94 -20 -145 -20q-116 0 -194 72t-78 198zM260 1231v129h598v-129h-598z" />
    <glyph glyph-name="Abreve" unicode="&#x102;" horiz-adv-x="1372" 
d="M469 569h489l-241 699zM92 0l551 1499h152l526 -1499h-180l-129 418h-598l-135 -418h-187zM483 1866h97q0 -58 42 -98t98 -40t97 38q41 36 41 100h96q0 -109 -72 -171q-72 -63 -164 -63q-91 0 -163 65t-72 169z" />
    <glyph glyph-name="abreve" unicode="&#x103;" horiz-adv-x="1062" 
d="M233 268q0 -129 121 -129q129 0 379 78l76 27v293l-455 -33q-61 -6 -91 -43t-30 -90v-103zM82 258v125q0 125 73 199t199 73q455 -2 455 0q2 135 0 138q0 168 -176 168t-516 -25v111q207 57 530 61q137 2 225 -77t89 -238v-793h-113l-39 131l-31 -14q-184 -89 -279 -109
q-94 -20 -145 -20q-116 0 -194 72t-78 198zM324 1464h96q0 -57 42 -97t98 -40t97 37t41 100h97q0 -109 -73 -171t-164 -62t-163 64q-71 65 -71 169z" />
    <glyph glyph-name="Aogonek" unicode="&#x104;" horiz-adv-x="1372" 
d="M469 569h489l-241 699zM92 0l551 1499h152l526 -1499h-45q-125 -104 -121 -174t127 -74v-123q-68 -10 -128 13q-60 22 -91 66q-74 104 3 201q44 54 130 91h-55l-129 418h-598l-135 -418h-187z" />
    <glyph glyph-name="aogonek" unicode="&#x105;" horiz-adv-x="1062" 
d="M233 268q0 -129 121 -129q129 0 379 78l76 27v293l-455 -33q-61 -6 -91 -43t-30 -90v-103zM82 258v125q0 125 73 199t199 73q455 -2 455 0q2 135 0 138q0 168 -176 168t-516 -25v111q207 57 530 61q137 2 225 -77t89 -238v-793h-15q-125 -104 -121 -174t127 -74v-123
q-70 -10 -130 13q-60 22 -91 66q-74 104 3 201q44 54 132 91h-18l-39 131l-31 -14q-184 -89 -279 -109q-94 -20 -145 -20q-116 0 -194 72t-78 198z" />
    <glyph glyph-name="Cacute" unicode="&#x106;" horiz-adv-x="1183" 
d="M113 754q0 389 105 575t394 187q223 0 500 -52v-121h-18q-61 7 -158 11q-96 4 -165 7t-181 3t-184 -50t-107 -182t-35 -382q0 -610 348 -611l500 15v-121q-242 -45 -500 -45q-499 0 -499 766zM602 1638l221 273h193l-271 -273h-143z" />
    <glyph glyph-name="cacute" unicode="&#x107;" horiz-adv-x="1024" 
d="M102 545q0 171 26 285q45 196 187 247q156 53 613 -33v-110q-286 12 -404 12t-149 -10t-63 -48q-58 -69 -58 -324q0 -256 46 -340t161 -83q211 0 403 17l78 6v-115q-197 -55 -481 -59q-85 0 -143 20t-110 76t-79 172q-27 115 -27 287zM479 1225l219 272h195l-272 -272
h-142z" />
    <glyph glyph-name="Ccircumflex" unicode="&#x108;" horiz-adv-x="1183" 
d="M113 754q0 389 105 575t394 187q223 0 500 -52v-121h-18q-61 7 -158 11q-96 4 -165 7t-181 3t-184 -50t-107 -182t-35 -382q0 -610 348 -611l500 15v-121q-242 -45 -500 -45q-499 0 -499 766zM375 1638l239 267h146l213 -267h-146l-145 146l-160 -146h-147z" />
    <glyph glyph-name="ccircumflex" unicode="&#x109;" horiz-adv-x="1024" 
d="M102 545q0 171 26 285q45 196 187 247q156 53 613 -33v-110q-286 12 -404 12t-149 -10t-63 -48q-58 -69 -58 -324q0 -256 46 -340t161 -83q211 0 403 17l78 6v-115q-197 -55 -481 -59q-85 0 -143 20t-110 76t-79 172q-27 115 -27 287zM281 1225l239 266h146l213 -266
h-146l-145 145l-160 -145h-147z" />
    <glyph glyph-name="Cdotaccent" unicode="&#x10a;" horiz-adv-x="1183" 
d="M113 754q0 389 105 575t394 187q223 0 500 -52v-121h-18q-61 7 -158 11q-96 4 -165 7t-181 3t-184 -50t-107 -182t-35 -382q0 -610 348 -611l500 15v-121q-242 -45 -500 -45q-499 0 -499 766zM594 1690v110q0 51 49 51h102q47 0 48 -51v-110q0 -47 -48 -48h-102
q-49 1 -49 48z" />
    <glyph glyph-name="cdotaccent" unicode="&#x10b;" horiz-adv-x="1024" 
d="M102 545q0 171 26 285q45 196 187 247q156 53 613 -33v-110q-286 12 -404 12t-149 -10t-63 -48q-58 -69 -58 -324q0 -256 46 -340t161 -83q211 0 403 17l78 6v-115q-197 -55 -481 -59q-85 0 -143 20t-110 76t-79 172q-27 115 -27 287zM502 1276v110q0 51 49 52h102
q47 0 47 -52v-110q0 -47 -47 -47h-102q-49 0 -49 47z" />
    <glyph glyph-name="Ccaron" unicode="&#x10c;" horiz-adv-x="1183" 
d="M113 754q0 389 105 575t394 187q223 0 500 -52v-121h-18q-61 7 -158 11q-96 4 -165 7t-181 3t-184 -50t-107 -182t-35 -382q0 -610 348 -611l500 15v-121q-242 -45 -500 -45q-499 0 -499 766zM385 1905h147l164 -146l142 146h145l-213 -267h-145z" />
    <glyph glyph-name="ccaron" unicode="&#x10d;" horiz-adv-x="1024" 
d="M102 545q0 171 26 285q45 196 187 247q156 53 613 -33v-110q-286 12 -404 12t-149 -10t-63 -48q-58 -69 -58 -324q0 -256 46 -340t161 -83q211 0 403 17l78 6v-115q-197 -55 -481 -59q-85 0 -143 20t-110 76t-79 172q-27 115 -27 287zM250 1491h147l164 -145l141 145h146
l-213 -266h-146z" />
    <glyph glyph-name="Dcaron" unicode="&#x10e;" horiz-adv-x="1345" 
d="M315 158h406q129 0 217 83q164 155 164 488t-97 475t-284 144h-406v-1190zM164 0v1499h557q133 0 232 -50t155 -126q146 -199 145 -580q0 -224 -80 -421t-245 -277q-92 -45 -207 -45h-557zM352 1888h148l164 -145l141 145h145l-213 -266h-145z" />
    <glyph glyph-name="dcaron" unicode="&#x10f;" horiz-adv-x="1134" 
d="M1262 1597v-137l-23 -274h-109l-20 274l-2 137h154zM254 539q0 -399 207 -400q170 0 401 94v666q-205 53 -401 53q-107 0 -157 -88t-50 -325zM165 923q75 181 296 181q77 0 193 -23t208 -59v586h150v-1608h-109l-41 121q-51 -37 -179 -85t-228 -48t-174 49t-111 134
q-68 156 -68 377t63 375z" />
    <glyph glyph-name="Dcroat" unicode="&#x110;" horiz-adv-x="1345" 
d="M315 158h408q190 0 282 165q91 165 91 422q0 592 -373 592l-408 -2v-516h285v-110h-285v-551zM31 709v110h133v678q0 2 559 2q225 0 343 -129t152 -297q35 -168 35 -302q0 -395 -172 -607q-59 -74 -151 -119t-207 -45h-559v709h-133z" />
    <glyph glyph-name="dcroat" unicode="&#x111;" horiz-adv-x="1134" 
d="M254 539q0 -399 207 -400q170 0 401 94v666q-205 53 -401 53q-107 0 -157 -88t-50 -325zM165 923q75 181 296 181q77 0 193 -23t208 -59v240h-250v110h250v236h150v-236h147v-110h-147v-1262h-109l-41 121q-51 -37 -179 -85t-228 -48t-174 49t-111 134q-68 156 -68 377
t63 375z" />
    <glyph glyph-name="Emacron" unicode="&#x112;" horiz-adv-x="1161" 
d="M164 252v981q0 141 73 206t185 60l647 -33v-118h-647q-49 0 -75 -20t-29 -38q-3 -20 -3 -57v-410l672 -20v-121l-672 -20v-410q0 -51 23 -76t43 -28t61 -3h627v-116l-627 -35q-278 -16 -278 258zM354 1628v129h598v-129h-598z" />
    <glyph glyph-name="emacron" unicode="&#x113;" horiz-adv-x="1075" 
d="M254 610h459q129 0 129 101q0 157 -46 195t-237 38t-230 -43q-60 -63 -67 -136q-8 -73 -8 -155zM102 549q0 180 25 290t89 166q66 56 144 73q78 18 204 18t190 -10q62 -10 124 -48q116 -70 115 -327q0 -250 -280 -250h-459q0 -190 43 -255t164 -65q373 0 512 21v-115
q-203 -57 -512 -57q-207 0 -283 118t-76 441zM264 1219v129h598v-129h-598z" />
    <glyph glyph-name="Edotaccent" unicode="&#x116;" horiz-adv-x="1161" 
d="M164 252v981q0 141 73 206t185 60l647 -33v-118h-647q-49 0 -75 -20t-29 -38q-3 -20 -3 -57v-410l672 -20v-121l-672 -20v-410q0 -51 23 -76t43 -28t61 -3h627v-116l-627 -35q-278 -16 -278 258zM557 1673v111q0 51 49 51h103q47 0 47 -51v-111q0 -47 -47 -47h-103
q-49 0 -49 47z" />
    <glyph glyph-name="edotaccent" unicode="&#x117;" horiz-adv-x="1075" 
d="M254 610h459q129 0 129 101q0 157 -46 195t-237 38t-230 -43q-60 -63 -67 -136q-8 -73 -8 -155zM102 549q0 180 25 290t89 166q66 56 144 73q78 18 204 18t190 -10q62 -10 124 -48q116 -70 115 -327q0 -250 -280 -250h-459q0 -190 43 -255t164 -65q373 0 512 21v-115
q-203 -57 -512 -57q-207 0 -283 118t-76 441zM459 1268v110q0 51 49 52h102q23 0 36 -14t13 -38v-110q0 -47 -49 -47h-102q-20 0 -35 13q-14 14 -14 34z" />
    <glyph glyph-name="Eogonek" unicode="&#x118;" horiz-adv-x="1161" 
d="M164 252v981q0 141 73 206t185 60l647 -33v-118h-647q-49 0 -75 -20t-29 -38q-3 -20 -3 -57v-410l672 -20v-121l-672 -20v-410q0 -51 23 -76t43 -28t61 -3h627v-116q-125 -104 -121 -175t127 -73v-123q-70 -10 -130 12t-91 67q-74 105 3 200q41 50 121 87l-536 -30
q-278 -16 -278 258z" />
    <glyph glyph-name="eogonek" unicode="&#x119;" horiz-adv-x="1075" 
d="M254 610h459q129 0 129 101q0 157 -46 195t-237 38t-230 -43q-60 -63 -67 -136q-8 -73 -8 -155zM102 549q0 180 25 290t89 166q66 56 144 73q78 18 204 18t190 -10q62 -10 124 -48q116 -70 115 -327q0 -250 -280 -250h-459q0 -190 43 -255t164 -65q373 0 512 21v-115
q-84 -68 -111 -124t5 -89t112 -35v-123q-68 -10 -129 13t-92 67q-74 104 3 200q27 33 71 60q-162 -26 -370 -26t-284 118t-76 441z" />
    <glyph glyph-name="Ecaron" unicode="&#x11a;" horiz-adv-x="1161" 
d="M164 252v981q0 141 73 206t185 60l647 -33v-118h-647q-49 0 -75 -20t-29 -38q-3 -20 -3 -57v-410l672 -20v-121l-672 -20v-410q0 -51 23 -76t43 -28t61 -3h627v-116l-627 -35q-278 -16 -278 258zM346 1888h148l163 -145l142 145h145l-213 -266h-145z" />
    <glyph glyph-name="ecaron" unicode="&#x11b;" horiz-adv-x="1075" 
d="M254 610h459q129 0 129 101q0 157 -46 195t-237 38t-230 -43q-60 -63 -67 -136q-8 -73 -8 -155zM102 549q0 180 25 290t89 166q66 56 144 73q78 18 204 18t190 -10q62 -10 124 -48q116 -70 115 -327q0 -250 -280 -250h-459q0 -190 43 -255t164 -65q373 0 512 21v-115
q-203 -57 -512 -57q-207 0 -283 118t-76 441zM266 1477h148l164 -146l141 146h145l-213 -267h-145z" />
    <glyph glyph-name="Gcircumflex" unicode="&#x11c;" horiz-adv-x="1257" 
d="M113 772q-1 324 85 516q101 227 394 228q80 0 247 -18t273 -38v-121q-29 1 -180 13t-343 12q-193 0 -259 -140t-66 -476t74 -472t262 -137q126 0 330 70l63 24v410h-344v102q186 51 357 52q66 0 139 -6v-791h-115l-33 100q-201 -111 -397 -110q-123 -2 -213 38t-142 104
t-83 168q-31 103 -40 209q-9 107 -9 263zM389 1638l240 267h145l213 -267h-145l-146 146l-159 -146h-148z" />
    <glyph glyph-name="gcircumflex" unicode="&#x11d;" horiz-adv-x="1134" 
d="M252 705q0 -87 26 -144q49 -106 162 -104h201q111 0 157 78q46 77 41 183t-46 164t-154 58h-184q-203 1 -203 -235zM336 23q-52 0 -92 16v-277q0 -164 176 -163h307q156 0 156 163v119q0 78 -28 110t-112 32h-407zM98 236q0 57 31 107t90 63q-119 76 -119 282t94 305
q94 98 261 99h639v-115l-166 -37q12 -24 26 -48t25 -64q12 -40 12 -110t-13 -130t-46 -128q-33 -69 -105 -112t-174 -43h-319q-84 0 -84 -61q0 -70 84 -70h436q125 0 195 -77t69 -206v-129q0 -111 -52 -201q-30 -52 -96 -83t-159 -31h-307q-150 0 -239 80t-89 235v175
l82 133q-76 53 -76 166zM264 1223l240 266h145l213 -266h-145l-146 145l-159 -145h-148z" />
    <glyph glyph-name="Gbreve" unicode="&#x11e;" horiz-adv-x="1257" 
d="M113 772q-1 324 85 516q101 227 394 228q80 0 247 -18t273 -38v-121q-29 1 -180 13t-343 12q-193 0 -259 -140t-66 -476t74 -472t262 -137q126 0 330 70l63 24v410h-344v102q186 51 357 52q66 0 139 -6v-791h-115l-33 100q-201 -111 -397 -110q-123 -2 -213 38t-142 104
t-83 168q-31 103 -40 209q-9 107 -9 263zM453 1872h96q0 -57 42 -97t98 -40t97 37t41 100h97q0 -109 -73 -171q-73 -63 -164 -63t-163 65q-71 65 -71 169z" />
    <glyph glyph-name="gbreve" unicode="&#x11f;" horiz-adv-x="1134" 
d="M252 705q0 -87 26 -144q49 -106 162 -104h201q111 0 157 78q46 77 41 183t-46 164t-154 58h-184q-203 1 -203 -235zM336 23q-52 0 -92 16v-277q0 -164 176 -163h307q156 0 156 163v119q0 78 -28 110t-112 32h-407zM98 236q0 57 31 107t90 63q-119 76 -119 282t94 305
q94 98 261 99h639v-115l-166 -37q12 -24 26 -48t25 -64q12 -40 12 -110t-13 -130t-46 -128q-33 -69 -105 -112t-174 -43h-319q-84 0 -84 -61q0 -70 84 -70h436q125 0 195 -77t69 -206v-129q0 -111 -52 -201q-30 -52 -96 -83t-159 -31h-307q-150 0 -239 80t-89 235v175
l82 133q-76 53 -76 166zM326 1456h96q0 -57 42 -97t98 -40t97 37t41 100h97q0 -109 -73 -171t-164 -62t-163 64q-71 65 -71 169z" />
    <glyph glyph-name="Gdotaccent" unicode="&#x120;" horiz-adv-x="1257" 
d="M113 772q-1 324 85 516q101 227 394 228q80 0 247 -18t273 -38v-121q-29 1 -180 13t-343 12q-193 0 -259 -140t-66 -476t74 -472t262 -137q126 0 330 70l63 24v410h-344v102q186 51 357 52q66 0 139 -6v-791h-115l-33 100q-201 -111 -397 -110q-123 -2 -213 38t-142 104
t-83 168q-31 103 -40 209q-9 107 -9 263zM571 1686v110q0 51 50 51h102q47 0 47 -51v-110q0 -47 -47 -48h-102q-50 1 -50 48z" />
    <glyph glyph-name="gdotaccent" unicode="&#x121;" horiz-adv-x="1134" 
d="M252 705q0 -87 26 -144q49 -106 162 -104h201q111 0 157 78q46 77 41 183t-46 164t-154 58h-184q-203 1 -203 -235zM336 23q-52 0 -92 16v-277q0 -164 176 -163h307q156 0 156 163v119q0 78 -28 110t-112 32h-407zM98 236q0 57 31 107t90 63q-119 76 -119 282t94 305
q94 98 261 99h639v-115l-166 -37q12 -24 26 -48t25 -64q12 -40 12 -110t-13 -130t-46 -128q-33 -69 -105 -112t-174 -43h-319q-84 0 -84 -61q0 -70 84 -70h436q125 0 195 -77t69 -206v-129q0 -111 -52 -201q-30 -52 -96 -83t-159 -31h-307q-150 0 -239 80t-89 235v175
l82 133q-76 53 -76 166zM469 1274v110q0 51 49 52h103q47 0 47 -52v-110q0 -47 -47 -47h-103q-49 0 -49 47z" />
    <glyph glyph-name="Gcommaaccent" unicode="&#x122;" horiz-adv-x="1257" 
d="M113 772q-1 324 85 516q101 227 394 228q80 0 247 -18t273 -38v-121q-29 1 -180 13t-343 12q-193 0 -259 -140t-66 -476t74 -472t262 -137q126 0 330 70l63 24v410h-344v102q186 51 357 52q66 0 139 -6v-791h-115l-33 100q-201 -111 -397 -110q-123 -2 -213 38t-142 104
t-83 168q-31 103 -40 209q-9 107 -9 263zM565 -303v100q0 49 47 49h95q43 0 43 -49v-166q0 -49 -18 -82t-43 -44q-59 -25 -95 -17l-19 2v59q57 -2 58 58v45h-21q-47 0 -47 45z" />
    <glyph glyph-name="gcommaaccent" unicode="&#x123;" horiz-adv-x="1134" 
d="M252 705q0 -87 26 -144q49 -106 162 -104h201q155 0 193 167q8 40 6 81q-6 119 -47 177t-154 58h-184q-203 1 -203 -235zM244 -238q0 -164 176 -163h307q113 0 142 77q13 35 14 86v58q0 131 -181 155l-346 45l-112 19v-277zM334 305q-84 0 -84 -66q0 -36 21 -50
q22 -13 63 -19l403 -51q135 -16 216 -93t81 -196v-68q0 -230 -172 -293q-57 -22 -135 -22h-307q-150 0 -239 80t-89 235v175l82 133q-76 52 -76 163q0 57 32 109t89 64q-61 40 -90 122t-29 177q0 190 94 288t261 99h639v-115l-166 -37q12 -24 26 -48t25 -64q12 -38 12 -102
q0 -297 -191 -390q-65 -31 -147 -31h-319zM467 1264v166q0 50 18 82t60 50t98 11v-60q-57 2 -57 -57v-47h20q45 0 45 -45v-100q0 -49 -45 -50h-94q-45 1 -45 50z" />
    <glyph glyph-name="Hcircumflex" unicode="&#x124;" horiz-adv-x="1306" 
d="M164 0v1499h151v-698h717v698h152v-1499h-152v649h-717v-649h-151zM375 1632l239 266h146l213 -266h-146l-145 146l-160 -146h-147z" />
    <glyph glyph-name="hcircumflex" unicode="&#x125;" 
d="M123 0v1606h151v-645q6 1 45 25t49 28t44 23q35 19 49 23t70 26q56 20 145 20q156 0 246 -102t90 -246v-758h-152v758q0 98 -50 147t-131 49q-148 0 -262 -50q-42 -17 -143 -66v-838h-151zM-104 1729l239 266h146l213 -266h-146l-145 145l-160 -145h-147z" />
    <glyph glyph-name="Hbar" unicode="&#x126;" horiz-adv-x="1347" 
d="M315 801h717v256h-717v-256zM39 1057v110h125v332h151v-332h717v332h152v-332h121v-110h-121v-1057h-152v649h-717v-649h-151v1057h-125z" />
    <glyph glyph-name="hbar" unicode="&#x127;" 
d="M-35 1249v111h158v246h158v-246h274v-111h-274v-288q258 147 413 145q150 6 234 -96t84 -248v-762h-158v756q-4 98 -48 150t-147 52q-145 -8 -378 -120v-838h-158v1249h-158z" />
    <glyph glyph-name="Itilde" unicode="&#x128;" horiz-adv-x="438" 
d="M164 0v1499h151v-1499h-151zM228 1671q-62 33 -112 33t-101 -30q-52 -30 -78 -42l-43 84q54 45 82 67q28 21 74 43t94 20t117 -37q69 -34 93 -33q45 -2 187 73l45 -86q-6 -4 -50 -40q-113 -92 -180 -89q-66 4 -128 37z" />
    <glyph glyph-name="itilde" unicode="&#x129;" horiz-adv-x="397" 
d="M123 0v1087h151v-1087h-151zM-147 1305q55 45 83 67t73 42q46 22 94 20t117 -36t93 -34q45 -2 187 74l45 -86q-6 -4 -50 -40q-114 -94 -181 -89q-66 4 -128 37t-111 32q-50 -1 -102 -31q-51 -30 -77 -40z" />
    <glyph glyph-name="Imacron" unicode="&#x12a;" horiz-adv-x="438" 
d="M164 0v1499h151v-1499h-151zM-59 1632v129h598v-129h-598z" />
    <glyph glyph-name="imacron" unicode="&#x12b;" horiz-adv-x="397" 
d="M123 0v1087h151v-1087h-151zM-100 1221v129h598v-129h-598z" />
    <glyph glyph-name="Iogonek" unicode="&#x12e;" horiz-adv-x="438" 
d="M164 0v1499h151v-1499h-30q-84 -68 -111 -124t5 -89t112 -35v-123q-68 -10 -129 13q-61 22 -92 66q-74 104 3 201q44 54 132 91h-41z" />
    <glyph glyph-name="iogonek" unicode="&#x12f;" horiz-adv-x="403" 
d="M123 0v1087h151v-1087h-26q-84 -68 -111 -124t5 -89t112 -35v-123q-68 -10 -129 13q-61 22 -92 66q-74 104 3 201q44 54 132 91h-45zM102 1264v110q0 51 50 51h102q47 0 47 -51v-110q0 -47 -47 -47h-102q-50 0 -50 47z" />
    <glyph glyph-name="Idotaccent" unicode="&#x130;" horiz-adv-x="438" 
d="M164 0v1499h151v-1499h-151zM139 1679v111q0 51 49 51h103q23 0 36 -14t13 -37v-111q0 -47 -49 -47h-103q-20 0 -34 14t-15 33z" />
    <glyph glyph-name="dotlessi" unicode="&#x131;" horiz-adv-x="397" 
d="M123 0v1087h151v-1087h-151z" />
    <glyph glyph-name="Jcircumflex" unicode="&#x134;" horiz-adv-x="735" 
d="M461 1499h151v-1161q0 -233 -106 -301q-82 -51 -218 -49t-216 55l8 111q178 -43 252 -27q127 29 129 211v1161zM238 1632l239 266h146l213 -266h-146l-145 146l-160 -146h-147z" />
    <glyph glyph-name="jcircumflex" unicode="&#x135;" horiz-adv-x="444" 
d="M141 -553v1640h162v-1095q4 -307 -53 -545h-109zM-82 1227l240 327h145l213 -327h-123l-168 186l-180 -186h-127z" />
    <glyph glyph-name="Kcommaaccent" unicode="&#x136;" horiz-adv-x="1210" 
d="M164 0v1499h151v-672h168l471 672h185l-516 -747l516 -752h-185l-471 676h-166v-676h-153zM537 -291v98q0 49 45 50h94q45 0 45 -50v-165q-1 -49 -19 -82t-44 -44q-61 -26 -95 -18l-18 2v60q57 -2 57 55v47h-20q-45 0 -45 47z" />
    <glyph glyph-name="kcommaaccent" unicode="&#x137;" horiz-adv-x="1024" 
d="M123 0v1602h151v-902h82l416 387h211l-483 -462l483 -625h-188l-439 549h-82v-549h-151zM438 -291v98q0 49 47 50h95q43 0 43 -50v-165q1 -49 -17 -82t-44 -44q-61 -26 -95 -18l-18 2v60q57 -2 57 55v47h-21q-47 0 -47 47z" />
    <glyph glyph-name="kgreenlandic" unicode="&#x138;" horiz-adv-x="1060" 
d="M123 0v1087h151v-473h172l385 473h189l-436 -546l407 -541h-190l-361 463h-164l-2 -463h-151z" />
    <glyph glyph-name="Lacute" unicode="&#x139;" horiz-adv-x="1140" 
d="M164 258v1241h151v-1241q0 -78 39 -92t88 -14h627v-152h-627q-117 0 -188 41q-90 52 -90 217zM168 1632l221 273h193l-271 -273h-143z" />
    <glyph glyph-name="lacute" unicode="&#x13a;" horiz-adv-x="614" 
d="M123 387v1217h151v-1217q0 -125 29 -173t88 -62q168 -43 182 -43v-109h-180q-270 0 -270 387zM193 1726l219 273h194l-272 -273h-141z" />
    <glyph glyph-name="Lcommaaccent" unicode="&#x13b;" horiz-adv-x="1140" 
d="M164 258v1241h151v-1241q0 -78 39 -92t88 -14h627v-152h-627q-117 0 -188 41q-90 52 -90 217zM541 -291v98q0 49 47 50h94q43 0 43 -50v-165q0 -49 -17 -82t-43 -44q-61 -26 -96 -18l-18 2v60q57 -2 57 55v47h-20q-47 0 -47 47z" />
    <glyph glyph-name="lcommaaccent" unicode="&#x13c;" horiz-adv-x="614" 
d="M123 387v1217h151v-1217q0 -125 29 -173t88 -62q168 -43 182 -43v-109h-180q-270 0 -270 387zM254 -291v98q0 49 45 50h94q45 0 45 -50v-165q0 -49 -18 -82t-44 -44q-61 -26 -95 -18l-19 2v60q57 -2 57 55v47h-20q-45 0 -45 47z" />
    <glyph glyph-name="Lcaron" unicode="&#x13d;" horiz-adv-x="1140" 
d="M473 1581h152v-137l-21 -275h-108l-23 275v137zM164 258v1241h151v-1241q0 -78 39 -92t88 -14h627v-152h-627q-117 0 -188 41q-90 52 -90 217z" />
    <glyph glyph-name="lcaron" unicode="&#x13e;" horiz-adv-x="614" 
d="M430 1599h152v-137l-21 -274h-108l-23 274v137zM123 387v1217h151v-1217q0 -129 24 -173t93 -62q168 -43 182 -43v-109h-180q-145 0 -208 86q-62 86 -62 301z" />
    <glyph glyph-name="Lslash" unicode="&#x141;" horiz-adv-x="1138" 
d="M164 1499h151v-579l287 122l-2 -122l-285 -125v-537q0 -78 39 -92t88 -14h627v-152h-627q-117 0 -188 41q-92 53 -90 217v471l-170 -74v125l170 74v645z" />
    <glyph glyph-name="lslash" unicode="&#x142;" horiz-adv-x="675" 
d="M184 1604h152v-588l293 127l-2 -123l-291 -127v-506q0 -125 29 -173t88 -62q168 -43 182 -43v-109h-180q-270 0 -271 387v440l-164 -71v125l164 69v654z" />
    <glyph glyph-name="Nacute" unicode="&#x143;" horiz-adv-x="1392" 
d="M164 0v1499h155l799 -1216v1216h152v-1499h-152l-801 1217v-1217h-153zM668 1632l217 273h196l-274 -273h-139z" />
    <glyph glyph-name="nacute" unicode="&#x144;" 
d="M123 0v1087h106l45 -126q6 1 45 25t49 28t44 23q35 19 49 23t70 26q56 20 145 20q156 0 246 -102t90 -246v-758h-152v758q0 96 -51 146t-131 50q-147 0 -261 -50q-42 -17 -143 -66v-838h-151zM489 1229l220 272h194l-272 -272h-142z" />
    <glyph glyph-name="Ncommaaccent" unicode="&#x145;" horiz-adv-x="1392" 
d="M164 0v1499h155l799 -1216v1216h152v-1499h-152l-801 1217v-1217h-153zM623 -291v98q0 49 47 50h94q43 0 43 -50v-165q0 -101 -61 -126t-95 -18l-18 2v60q57 -2 57 55v47h-20q-47 0 -47 47z" />
    <glyph glyph-name="ncommaaccent" unicode="&#x146;" 
d="M123 0v1087h106l45 -126q6 1 45 25t49 28t44 23q35 19 49 23t70 26q56 20 145 20q156 0 246 -102t90 -246v-758h-152v758q0 96 -51 146t-131 50q-147 0 -261 -50q-42 -17 -143 -66v-838h-151zM479 -291v98q0 49 45 50h94q45 0 46 -50v-165q0 -49 -18 -82t-45 -44
q-61 -26 -95 -18l-19 2v60q57 -2 58 55v47h-21q-45 0 -45 47z" />
    <glyph glyph-name="Ncaron" unicode="&#x147;" horiz-adv-x="1392" 
d="M164 0v1499h155l799 -1216v1216h152v-1499h-152l-801 1217v-1217h-153zM438 1898h148l164 -145l141 145h145l-213 -266h-145z" />
    <glyph glyph-name="ncaron" unicode="&#x148;" 
d="M123 0v1087h106l45 -126q6 1 45 25t49 28t44 23q35 19 49 23t70 26q56 20 145 20q156 0 246 -102t90 -246v-758h-152v758q0 96 -51 146t-131 50q-147 0 -261 -50q-42 -17 -143 -66v-838h-151zM291 1495h147l164 -145l141 145h146l-213 -266h-146z" />
    <glyph glyph-name="Eng" unicode="&#x14a;" horiz-adv-x="1388" 
d="M164 0v1499h155l795 -1196v1196h152v-1671q0 -224 -131 -295q-66 -35 -136 -47t-172 -12v116q17 6 61 14q138 27 182 86t44 167v143l-795 1217l-4 -1217h-151z" />
    <glyph glyph-name="eng" unicode="&#x14b;" horiz-adv-x="1134" 
d="M123 0v1087h106l45 -126q6 1 45 25t49 28t44 23q35 19 49 23t70 26q56 20 145 20q156 0 246 -102t90 -246v-758l-2 -184q-7 -96 -48 -187q-16 -33 -50 -61t-59 -49q-25 -20 -76 -37q-52 -16 -101 -31l-62 78q14 5 67 35q101 58 140 117t39 126v951q0 96 -51 146t-131 50
q-147 0 -261 -50q-42 -17 -143 -66v-838h-151z" />
    <glyph glyph-name="Omacron" unicode="&#x14c;" horiz-adv-x="1384" 
d="M285 690q0 -150 19 -266q20 -116 76 -180t130 -82t190 -18t183 12q147 30 202 158q55 127 55 436q1 309 -48 422q-20 46 -37 77q-27 52 -106 85q-43 20 -110 22t-124 2t-125 -2t-101 -18q-33 -14 -65 -36t-50 -53q-17 -31 -38 -77q-51 -117 -51 -482zM133 741
q0 346 76 510q39 85 85 137q81 92 257 113q68 8 158 8q279 0 384 -82t152 -243t47 -400q0 -415 -95 -594q-79 -147 -279 -184q-82 -14 -194 -14t-181 8q-179 20 -258 110q-105 118 -135 338q-16 124 -17 293zM416 1632v129h598v-129h-598z" />
    <glyph glyph-name="omacron" unicode="&#x14d;" horiz-adv-x="1163" 
d="M254 520q0 -125 19 -205q19 -81 67 -117t99 -46q49 -10 143 -10t146 10t98 48t64 116t19 218q0 140 -15 224t-60 126q-46 42 -98 52t-142 10t-135 -6q-117 -16 -157 -96q-48 -98 -48 -324zM102 544q0 314 104 434t378 120q272 0 374 -122t102 -438t-102 -432t-374 -116
t-377 120t-105 434zM283 1221v129h598v-129h-598z" />
    <glyph glyph-name="Ohungarumlaut" unicode="&#x150;" horiz-adv-x="1384" 
d="M285 690q0 -150 19 -266q20 -116 76 -180t130 -82t190 -18t183 12q147 30 202 158q55 127 55 436q1 309 -48 422q-20 46 -37 77q-27 52 -106 85q-43 20 -110 22t-124 2t-125 -2t-101 -18q-33 -14 -65 -36t-50 -53q-17 -31 -38 -77q-51 -117 -51 -482zM133 741
q0 346 76 510q39 85 85 137q81 92 257 113q68 8 158 8q279 0 384 -82t152 -243t47 -400q0 -415 -95 -594q-79 -147 -279 -184q-82 -14 -194 -14t-181 8q-179 20 -258 110q-105 118 -135 338q-16 124 -17 293zM782 1632l219 273h195l-272 -273h-142zM506 1632l219 273h195
l-273 -273h-141z" />
    <glyph glyph-name="ohungarumlaut" unicode="&#x151;" horiz-adv-x="1163" 
d="M254 520q0 -125 19 -205q19 -81 67 -117t99 -46q49 -10 143 -10t146 10t98 48t64 116t19 218q0 140 -15 224t-60 126q-46 42 -98 52t-142 10t-135 -6q-117 -16 -157 -96q-48 -98 -48 -324zM102 544q0 314 104 434t378 120q272 0 374 -122t102 -438t-102 -432t-374 -116
t-377 120t-105 434zM649 1221l219 272h195l-272 -272h-142zM373 1221l219 272h194l-272 -272h-141z" />
    <glyph glyph-name="OE" unicode="&#x152;" horiz-adv-x="2160" 
d="M133 758q0 186 29 330t75 227q46 82 125 126q80 44 157 56t219 12q142 -1 247 -31q106 -30 176 -120q55 152 238 141l649 -33v-118h-649q-49 0 -75 -20t-29 -38q-3 -20 -3 -57v-410l674 -20v-121l-674 -20v-410q0 -51 23 -76t43 -28t61 -3h629v-116l-629 -35
q-213 -12 -262 141q-70 -83 -176 -113t-238 -30t-202 8q-180 21 -257 110q-104 120 -134 338q-16 124 -17 310zM304 424q18 -116 74 -180t130 -82t204 -18t204 21q166 49 204 266q20 116 20 263q1 355 -49 478q-19 46 -36 77q-27 53 -107 85q-45 20 -111 22q-67 2 -133 2
q-218 0 -276 -50q-84 -74 -107 -179q-36 -161 -36 -375t19 -330z" />
    <glyph glyph-name="oe" unicode="&#x153;" horiz-adv-x="1878" 
d="M1516 610q129 0 129 101q-1 157 -47 195t-204 38t-216 -22t-80 -60q-47 -81 -39 -252h457zM254 520q0 -125 19 -205q19 -81 67 -117t99 -46q50 -10 143 -11q207 0 265 77t58 326q1 250 -65 326t-258 76q-78 0 -123 -6q-117 -16 -157 -96q-48 -98 -48 -324zM592 -10
q-280 0 -385 120t-105 434t104 434t388 120q283 0 383 -146q51 86 144 115t233 29t202 -10t124 -48q116 -69 116 -327q0 -250 -280 -250h-457q-6 -176 39 -248t166 -72q373 0 512 21v-115q-203 -57 -512 -57q-215 0 -291 135q-101 -135 -381 -135z" />
    <glyph glyph-name="Racute" unicode="&#x154;" horiz-adv-x="1214" 
d="M274 776h488q120 0 152 59q40 75 40 234q0 160 -53 218t-139 59h-488v-570zM123 0v1499h639q346 0 346 -450q0 -393 -260 -431l315 -618h-164l-315 612l-410 29v-641h-151zM524 1622l219 272h195l-272 -272h-142z" />
    <glyph glyph-name="racute" unicode="&#x155;" horiz-adv-x="872" 
d="M123 0v1087h106l45 -137q145 87 214 112t113 32q44 6 121 6t109 -17v-149q-49 12 -139 12q-163 0 -273 -51q-42 -18 -145 -68v-827h-151zM446 1225l220 272h194l-272 -272h-142z" />
    <glyph glyph-name="Rcommaaccent" unicode="&#x156;" horiz-adv-x="1214" 
d="M274 776h488q120 0 152 59q40 75 40 234q0 160 -53 218t-139 59h-488v-570zM123 0v1499h639q346 0 346 -450q0 -393 -260 -431l315 -618h-164l-315 612l-410 29v-641h-151zM520 -291v98q0 49 47 50h95q43 0 43 -50v-165q1 -49 -17 -82t-44 -44q-61 -26 -95 -18l-19 2v60
q57 -2 58 55v47h-21q-47 0 -47 47z" />
    <glyph glyph-name="rcommaaccent" unicode="&#x157;" horiz-adv-x="872" 
d="M123 0v1087h106l45 -137q145 87 214 112t113 32q44 6 121 6t109 -17v-149q-49 12 -139 12q-163 0 -273 -51q-42 -18 -145 -68v-827h-151zM106 -291v98q0 49 48 50h94q43 0 43 -50v-165q1 -49 -17 -82t-44 -44q-61 -26 -95 -18l-18 2v60q57 -2 57 55v47h-20q-48 0 -48 47z
" />
    <glyph glyph-name="Rcaron" unicode="&#x158;" horiz-adv-x="1214" 
d="M274 776h488q120 0 152 59q40 75 40 234q0 160 -53 218t-139 59h-488v-570zM123 0v1499h639q346 0 346 -450q0 -393 -260 -431l315 -618h-164l-315 612l-410 29v-641h-151zM289 1898h147l164 -145l141 145h146l-213 -266h-146z" />
    <glyph glyph-name="rcaron" unicode="&#x159;" horiz-adv-x="872" 
d="M123 0v1087h106l45 -137q145 87 214 112t113 32q44 6 121 6t109 -17v-149q-49 12 -139 12q-163 0 -273 -51q-42 -18 -145 -68v-827h-151zM178 1489h148l163 -146l142 146h145l-213 -266h-145z" />
    <glyph glyph-name="Sacute" unicode="&#x15a;" horiz-adv-x="1196" 
d="M133 1012v135q1 207 107 286t299 78q139 0 512 -49v-123l-512 21q-129 6 -191 -34t-63 -179v-135q0 -127 50 -164t159 -37h290q319 0 320 -352v-140q0 -207 -133 -277q-107 -58 -281 -58q-72 0 -253 18t-259 33v123q225 -23 512 -23q262 0 262 184v140q0 96 -37 148
t-131 52h-286q-235 0 -305 113q-60 94 -60 240zM557 1634l219 273h195l-273 -273h-141z" />
    <glyph glyph-name="sacute" unicode="&#x15b;" horiz-adv-x="1036" 
d="M82 733v94q0 133 65 202t239 69t513 -33v-117h-534q-96 0 -116 -36q-14 -25 -16 -85v-94q0 -80 35 -98q35 -17 97 -19h323q129 0 198 -72t68 -192v-100q0 -152 -74 -207t-192 -55q-190 0 -561 39v112h561q0 2 16 -1t45 13q54 28 54 99v100q0 57 -26 85t-89 28h-323
q-150 0 -217 57q-66 57 -66 211zM440 1231l219 272h195l-272 -272h-142z" />
    <glyph glyph-name="Scircumflex" unicode="&#x15c;" horiz-adv-x="1196" 
d="M133 1012v135q1 207 107 286t299 78q139 0 512 -49v-123l-512 21q-129 6 -191 -34t-63 -179v-135q0 -127 50 -164t159 -37h290q319 0 320 -352v-140q0 -207 -133 -277q-107 -58 -281 -58q-72 0 -253 18t-259 33v123q225 -23 512 -23q262 0 262 184v140q0 96 -37 148
t-131 52h-286q-235 0 -305 113q-60 94 -60 240zM342 1634l240 267h145l213 -267h-145l-146 146l-160 -146h-147z" />
    <glyph glyph-name="scircumflex" unicode="&#x15d;" horiz-adv-x="1036" 
d="M82 733v94q0 133 65 202t239 69t513 -33v-117h-534q-96 0 -116 -36q-14 -25 -16 -85v-94q0 -80 35 -98q35 -17 97 -19h323q129 0 198 -72t68 -192v-100q0 -152 -74 -207t-192 -55q-190 0 -561 39v112h561q0 2 16 -1t45 13q54 28 54 99v100q0 57 -26 85t-89 28h-323
q-150 0 -217 57q-66 57 -66 211zM219 1221l240 266h145l213 -266h-145l-146 145l-159 -145h-148z" />
    <glyph glyph-name="Scedilla" unicode="&#x15e;" horiz-adv-x="1196" 
d="M133 1012v135q1 207 107 286t299 78q139 0 512 -49v-123l-512 21q-129 6 -191 -34t-63 -179v-135q0 -127 50 -164t159 -37h290q319 0 320 -352v-140q0 -207 -133 -277q-107 -58 -281 -58q-72 0 -253 18t-259 33v123q225 -23 512 -23q262 0 262 184v140q0 96 -37 148
t-131 52h-286q-235 0 -305 113q-60 94 -60 240zM713 -92q0 -160 -43 -219t-164 -60h-105v76l109 31q66 29 65 172h138z" />
    <glyph glyph-name="scedilla" unicode="&#x15f;" horiz-adv-x="1036" 
d="M82 733v94q0 133 65 202t239 69t513 -33v-117h-534q-96 0 -116 -36q-14 -25 -16 -85v-94q0 -80 35 -98q35 -17 97 -19h323q129 0 198 -72t68 -192v-100q0 -152 -74 -207t-192 -55q-190 0 -561 39v112h561q0 2 16 -1t45 13q54 28 54 99v100q0 57 -26 85t-89 28h-323
q-150 0 -217 57q-66 57 -66 211zM616 -80q0 -160 -43 -219t-163 -59h-105v75l109 31q66 29 65 172h137z" />
    <glyph glyph-name="Scaron" unicode="&#x160;" horiz-adv-x="1196" 
d="M133 1012v135q1 207 107 286t299 78q139 0 512 -49v-123l-512 21q-129 6 -191 -34t-63 -179v-135q0 -127 50 -164t159 -37h290q319 0 320 -352v-140q0 -207 -133 -277q-107 -58 -281 -58q-72 0 -253 18t-259 33v123q225 -23 512 -23q262 0 262 184v140q0 96 -37 148
t-131 52h-286q-235 0 -305 113q-60 94 -60 240zM326 1901h147l164 -146l141 146h146l-213 -267h-146z" />
    <glyph glyph-name="scaron" unicode="&#x161;" horiz-adv-x="1036" 
d="M82 733v94q0 133 65 202t239 69t513 -33v-117h-534q-96 0 -116 -36q-14 -25 -16 -85v-94q0 -80 35 -98q35 -17 97 -19h323q129 0 198 -72t68 -192v-100q0 -152 -74 -207t-192 -55q-190 0 -561 39v112h561q0 2 16 -1t45 13q54 28 54 99v100q0 57 -26 85t-89 28h-323
q-150 0 -217 57q-66 57 -66 211zM225 1497h148l164 -145l141 145h145l-213 -266h-145z" />
    <glyph glyph-name="Tcommaaccent" unicode="&#x162;" horiz-adv-x="1183" 
d="M92 1348v151h1041v-151h-451v-1348h-152v1348h-438zM535 -100h137q0 -160 -43 -219t-164 -60h-105v76l109 31q66 29 66 172z" />
    <glyph glyph-name="tcommaaccent" unicode="&#x163;" horiz-adv-x="774" 
d="M41 938v115l203 37l37 303h114v-303h318v-152h-318v-549q0 -125 29 -173t88 -62q168 -43 182 -43v-109h-180q-270 0 -270 387v549h-203zM500 -104q0 -160 -43 -220t-164 -59h-105v76l109 31q66 29 65 172h138z" />
    <glyph glyph-name="Tcaron" unicode="&#x164;" horiz-adv-x="1183" 
d="M92 1348v151h1041v-151h-451v-1348h-152v1348h-438zM293 1898h147l164 -145l141 145h146l-213 -266h-146z" />
    <glyph glyph-name="tcaron" unicode="&#x165;" horiz-adv-x="753" 
d="M678 1638v-137l-23 -274h-108l-21 274l-2 137h154zM41 938v115l203 37l37 303h114v-303h318v-152h-318v-549q0 -125 29 -173t88 -62q168 -43 182 -43v-109h-180q-270 0 -270 387v549h-203z" />
    <glyph glyph-name="Tbar" unicode="&#x166;" horiz-adv-x="1183" 
d="M72 1348v151h1040v-151h-450v-439h245v-110h-245v-799h-152v799h-246v110h246v439h-438z" />
    <glyph glyph-name="tbar" unicode="&#x167;" horiz-adv-x="753" 
d="M41 938v115l203 37l37 303h114v-303h318v-152h-318v-279h215v-110h-215v-160q2 -143 24 -180t97 -55q158 -37 160 -37v-115h-160q-147 0 -210 87q-62 87 -62 300v160h-166v110h166v279h-203z" />
    <glyph glyph-name="Utilde" unicode="&#x168;" horiz-adv-x="1386" 
d="M164 655v844h151v-844q0 -186 24 -296q24 -111 87 -155t117 -54t137 -9q82 0 140 2t86 15q83 36 108 72q53 76 67 140q29 132 29 285v844h154v-844q0 -190 -36 -322t-82 -198q-46 -67 -131 -101t-141 -39t-108 -5h-66q-186 0 -225 13t-81 29t-66 41q-24 27 -54 61
q-31 34 -47 84q-44 139 -54 239q-9 100 -9 198zM601 1694q-37 0 -67 -12t-64 -30q-34 -19 -60 -30l-43 84q55 45 83 67q28 21 74 43t93 20q48 -2 117 -37q69 -34 93 -34q45 -2 187 74l45 -86q-6 -4 -59 -47t-122 -73q-70 -30 -178 28q-62 33 -99 33z" />
    <glyph glyph-name="utilde" unicode="&#x169;" 
d="M102 330v757h152v-757q0 -96 51 -146t131 -51q140 0 261 50q42 17 143 67v837h151v-1087h-106l-45 127q-6 -2 -45 -26q-39 -23 -49 -27t-44 -24q-35 -20 -49 -23q-14 -5 -68 -25t-147 -20q-156 0 -246 102t-90 246zM201 1305q55 45 83 67t74 42q46 22 93 20
q48 -2 117 -36t94 -34q45 -2 186 74l45 -86q-6 -4 -50 -40q-114 -94 -181 -89q-66 4 -142 45t-152 13q-30 -11 -64 -31t-60 -29z" />
    <glyph glyph-name="Umacron" unicode="&#x16a;" horiz-adv-x="1386" 
d="M164 655v844h151v-844q0 -186 24 -296q24 -111 87 -155t117 -54t137 -9q82 0 140 2t86 15q83 36 108 72q53 76 67 140q29 132 29 285v844h154v-844q0 -190 -36 -322t-82 -198q-46 -67 -131 -101t-141 -39t-108 -5h-66q-186 0 -225 13t-81 29t-66 41q-24 27 -54 61
q-31 34 -47 84q-44 139 -54 239q-9 100 -9 198zM414 1632v129h598v-129h-598z" />
    <glyph glyph-name="umacron" unicode="&#x16b;" 
d="M102 330v757h152v-757q0 -96 51 -146t131 -51q140 0 261 50q42 17 143 67v837h151v-1087h-106l-45 127q-6 -2 -45 -26q-39 -23 -49 -27t-44 -24q-35 -20 -49 -23q-14 -5 -68 -25t-147 -20q-156 0 -246 102t-90 246zM248 1221v129h598v-129h-598z" />
    <glyph glyph-name="Ubreve" unicode="&#x16c;" horiz-adv-x="1386" 
d="M164 655v844h151v-844q0 -186 24 -296q24 -111 87 -155t117 -54t137 -9q82 0 140 2t86 15q83 36 108 72q53 76 67 140q29 132 29 285v844h154v-844q0 -190 -36 -322t-82 -198q-46 -67 -131 -101t-141 -39t-108 -5h-66q-186 0 -225 13t-81 29t-66 41q-24 27 -54 61
q-31 34 -47 84q-44 139 -54 239q-9 100 -9 198zM479 1866h94q0 -58 43 -98q44 -40 100 -40t96 38q40 36 40 100h98q0 -115 -75 -173q-75 -59 -164 -60q-90 -1 -161 64t-71 169z" />
    <glyph glyph-name="ubreve" unicode="&#x16d;" 
d="M102 330v757h152v-757q0 -96 51 -146t131 -51q140 0 261 50q42 17 143 67v837h151v-1087h-106l-45 127q-6 -2 -45 -26q-39 -23 -49 -27t-44 -24q-35 -20 -49 -23q-14 -5 -68 -25t-147 -20q-156 0 -246 102t-90 246zM328 1454h96q0 -57 42 -97t98 -40t98 37q41 37 40 100
h97q0 -109 -73 -171t-164 -62t-163 64q-71 65 -71 169z" />
    <glyph glyph-name="Uring" unicode="&#x16e;" horiz-adv-x="1386" 
d="M164 655v844h151v-844q0 -186 24 -296q24 -111 87 -155t117 -54t137 -9q82 0 140 2t86 15q83 36 108 72q53 76 67 140q29 132 29 285v844h154v-844q0 -190 -36 -322t-82 -198q-46 -67 -131 -101t-141 -39t-108 -5h-66q-186 0 -225 13t-81 29t-66 41q-24 27 -54 61
q-31 34 -47 84q-44 139 -54 239q-9 100 -9 198zM602 1842q0 -46 33 -79t80 -33t79 32t31 79q0 47 -32 80q-33 33 -79 33t-79 -33t-33 -79zM506 1841q0 87 61 149t147 62t147 -61t61 -149t-60 -149t-147 -61q-85 0 -147 60t-62 149z" />
    <glyph glyph-name="uring" unicode="&#x16f;" 
d="M102 330v757h152v-757q0 -96 51 -146t131 -51q140 0 261 50q42 17 143 67v837h151v-1087h-106l-45 127q-6 -2 -45 -26q-39 -23 -49 -27t-44 -24q-35 -20 -49 -23q-14 -5 -68 -25t-147 -20q-156 0 -246 102t-90 246zM434 1430q0 -45 34 -78t80 -33t79 33t32 79
q-1 47 -33 79t-78 32t-80 -34t-34 -78zM340 1437q0 50 28 98t75 77q49 28 105 28t104 -28t75 -77q27 -48 27 -105q0 -58 -27 -106t-75 -76t-97 -28t-88 17q-39 16 -67 44t-44 67t-16 89z" />
    <glyph glyph-name="Uhungarumlaut" unicode="&#x170;" horiz-adv-x="1386" 
d="M164 655v844h151v-844q0 -186 24 -296q24 -111 87 -155t117 -54t137 -9q82 0 140 2t86 15q83 36 108 72q53 76 67 140q29 132 29 285v844h154v-844q0 -190 -36 -322t-82 -198q-46 -67 -131 -101t-141 -39t-108 -5h-66q-186 0 -225 13t-81 29t-66 41q-24 27 -54 61
q-31 34 -47 84q-44 139 -54 239q-9 100 -9 198zM782 1632l217 273h197l-274 -273h-140zM504 1632l221 273h193l-271 -273h-143z" />
    <glyph glyph-name="uhungarumlaut" unicode="&#x171;" 
d="M102 330v757h152v-757q0 -96 51 -146t131 -51q140 0 261 50q42 17 143 67v837h151v-1087h-106l-45 127q-6 -2 -45 -26q-39 -23 -49 -27t-44 -24q-35 -20 -49 -23q-14 -5 -68 -25t-147 -20q-156 0 -246 102t-90 246zM614 1221l220 272h194l-272 -272h-142zM338 1221
l219 272h195l-273 -272h-141z" />
    <glyph glyph-name="Uogonek" unicode="&#x172;" horiz-adv-x="1386" 
d="M164 655v844h151v-844q0 -186 24 -296q24 -111 87 -155t117 -54t137 -9q82 0 140 2t86 15q83 36 108 72q53 76 67 140q29 132 29 285v844h154v-844q0 -190 -36 -322t-82 -198q-46 -67 -131 -101t-137 -38t-133 -6q-83 -66 -109 -122t6 -89t112 -35v-123q-68 -9 -129 13
q-119 44 -128 161q-5 51 39 105t127 90q-149 0 -188 13t-81 29t-66 41q-24 27 -54 61q-31 34 -47 84q-44 139 -54 239q-9 100 -9 198z" />
    <glyph glyph-name="uogonek" unicode="&#x173;" 
d="M102 330v757h152v-757q0 -96 51 -146t131 -51q140 0 261 50q42 17 143 67v837h151v-1087h-12q-125 -104 -121 -174t127 -74v-123q-70 -10 -130 13q-60 22 -91 66q-74 104 3 201q44 54 132 91h-14l-45 127q-6 -2 -45 -26q-39 -23 -49 -27t-44 -24q-35 -20 -49 -23
q-14 -5 -68 -25t-147 -20q-156 0 -246 102t-90 246z" />
    <glyph glyph-name="Wcircumflex" unicode="&#x174;" horiz-adv-x="1970" 
d="M92 1499h166l436 -1235l371 1235h172l-139 -479l272 -768l383 1247h166l-469 -1499h-152l-280 766l-248 -766h-152zM727 1622l240 266h145l213 -266h-145l-146 145l-160 -145h-147z" />
    <glyph glyph-name="wcircumflex" unicode="&#x175;" horiz-adv-x="1640" 
d="M41 1087h166l321 -864l283 864h164l-111 -348l238 -516l332 864h165l-415 -1087h-152l-241 532l-179 -532h-163zM532 1210l240 267h146l212 -267h-145l-145 146l-160 -146h-148z" />
    <glyph glyph-name="Ycircumflex" unicode="&#x176;" horiz-adv-x="1290" 
d="M721 0h-152v532l-477 967h166l387 -786l428 786h166l-518 -967v-532zM346 1622l240 266h145l213 -266h-145l-146 145l-159 -145h-148z" />
    <glyph glyph-name="ycircumflex" unicode="&#x177;" horiz-adv-x="1134" 
d="M43 1087h166l264 -849q14 -42 35 -60q21 -19 42 -23t37 -2q15 3 19 3l2 2l312 929h170l-480 -1431l-153 -209h-95l193 553q-176 0 -246 225zM268 1221l240 266h145l213 -266h-145l-146 145l-159 -145h-148z" />
    <glyph glyph-name="Ydieresis" unicode="&#x178;" horiz-adv-x="1290" 
d="M721 0h-152v532l-477 967h166l387 -786l428 786h166l-518 -967v-532zM823 1737q0 43 31 73t74 29q42 0 72 -30q30 -31 30 -73t-30 -73t-72 -31t-74 31q-31 31 -31 74zM301 1737q0 43 31 73t74 29q42 0 72 -30q30 -31 30 -73t-30 -73t-72 -31t-74 31q-31 31 -31 74z" />
    <glyph glyph-name="Zacute" unicode="&#x179;" horiz-adv-x="1153" 
d="M72 0v152l811 1196h-811v151h1009v-151l-811 -1196h811v-152h-1009zM506 1632l219 273h195l-273 -273h-141z" />
    <glyph glyph-name="zacute" unicode="&#x17a;" horiz-adv-x="933" 
d="M61 936v151h811v-151l-581 -782h581v-152h-780v152l592 782h-623zM397 1221l217 272h197l-274 -272h-140z" />
    <glyph glyph-name="Zdotaccent" unicode="&#x17b;" horiz-adv-x="1153" 
d="M72 0v152l811 1196h-811v151h1009v-151l-811 -1196h811v-152h-1009zM477 1679v111q0 51 49 51h103q47 0 47 -51v-111q0 -47 -47 -47h-103q-49 0 -49 47z" />
    <glyph glyph-name="zdotaccent" unicode="&#x17c;" horiz-adv-x="933" 
d="M61 936v151h811v-151l-581 -782h581v-152h-780v152l592 782h-623zM369 1268v110q0 51 49 52h102q20 0 32 -14t13 -38v-110q0 -47 -45 -47h-102q-23 -1 -36 13t-13 34z" />
    <glyph glyph-name="Zcaron" unicode="&#x17d;" horiz-adv-x="1153" 
d="M72 0v152l811 1196h-811v151h1009v-151l-811 -1196h811v-152h-1009zM279 1898h147l164 -145l139 145h148l-213 -266h-148z" />
    <glyph glyph-name="zcaron" unicode="&#x17e;" horiz-adv-x="933" 
d="M61 936v151h811v-151l-581 -782h581v-152h-780v152l592 782h-623zM168 1487h147l164 -146l142 146h145l-213 -266h-145z" />
    <glyph glyph-name="florin" unicode="&#x192;" horiz-adv-x="1212" 
d="M240 -266q104 0 153 149q38 114 68 297l98 633h-209l27 154h209l10 69q67 444 228 556q67 46 148 46t119 -16t60 -25l20 -10l-14 -100h-180q-101 0 -154 -154q-40 -117 -69 -297l-11 -71h289l-26 -152h-289l-99 -633q-44 -304 -109 -424q-128 -235 -386 -153
q-66 20 -82 30l14 101h185z" />
    <glyph glyph-name="circumflex" unicode="&#x2c6;" horiz-adv-x="802" 
d="M102 1087l240 267h145l213 -267h-145l-145 146l-160 -146h-148z" />
    <glyph glyph-name="caron" unicode="&#x2c7;" horiz-adv-x="802" 
d="M102 1354h148l164 -146l141 146h145l-213 -267h-145z" />
    <glyph glyph-name="breve" unicode="&#x2d8;" horiz-adv-x="673" 
d="M102 1319h97q0 -57 42 -97t98 -40t97 37t41 100h96q-1 -109 -73 -171t-163 -62t-163 64q-72 65 -72 169z" />
    <glyph glyph-name="dotaccent" unicode="&#x2d9;" horiz-adv-x="403" 
d="M102 1139v110q0 51 50 51h102q47 0 47 -51v-110q0 -47 -47 -47h-102q-50 0 -50 47z" />
    <glyph glyph-name="ring" unicode="&#x2da;" horiz-adv-x="620" 
d="M199 1294q1 -46 33 -78t78 -32t79 33t33 79t-33 78q-33 33 -78 33t-79 -34t-33 -79zM102 1294q0 88 62 150t147 61q87 0 147 -61q60 -62 60 -150t-60 -148t-146 -60t-148 60t-62 148z" />
    <glyph glyph-name="ogonek" unicode="&#x2db;" horiz-adv-x="458" 
d="M270 0h80q-84 -68 -110 -124t5 -89q32 -33 111 -35v-123q-68 -10 -129 13q-61 22 -92 66q-74 104 3 201q44 54 132 91z" />
    <glyph glyph-name="tilde" unicode="&#x2dc;" horiz-adv-x="897" 
d="M436 1126q-62 32 -111 33q-50 -1 -101 -31q-52 -30 -79 -41l-43 84q55 45 83 67t74 44t94 19q48 -2 117 -36t93 -34q45 -2 187 74l45 -86q-7 -4 -51 -40t-63 -49q-69 -43 -126 -40q-57 4 -119 36z" />
    <glyph glyph-name="hungarumlaut" unicode="&#x2dd;" horiz-adv-x="778" 
d="M317 1087l220 273h194l-272 -273h-142zM41 1087l219 273h195l-273 -273h-141z" />
    <glyph glyph-name="uni0338" unicode="&#x338;" horiz-adv-x="1316" 
d="M496 152h335q190 0 191 180v835q0 80 -35 123l-567 -1128q41 -10 76 -10zM295 332q0 -57 20 -92l555 1106q-12 2 -39 2h-335q-102 0 -152 -50t-49 -131v-835zM143 332v835q-1 160 99 246t254 86h335q175 0 259 -93t84 -239v-835q0 -332 -343 -332h-335q-154 0 -254 80
t-99 252z" />
    <glyph glyph-name="Omega" unicode="&#x3a9;" horiz-adv-x="1595" 
d="M133 713v129q0 55 18 149q17 93 63 191t118 170t192 116t289 45q168 0 300 -60q235 -107 307 -395q32 -124 32 -254t-6 -200q-6 -68 -29 -156q-44 -168 -217 -290l262 -21v-137h-467v160q244 161 282 346q23 110 23 257q0 145 -22 241t-74 181q-110 177 -405 177
q-514 0 -514 -584q0 -121 6 -181t36 -137t93 -145t176 -155v-160h-451v139l273 21q-142 91 -201 192q-31 52 -49 96q-35 84 -35 265z" />
    <glyph glyph-name="pi" unicode="&#x3c0;" horiz-adv-x="1308" 
d="M41 936v151h1126v-151h-264v-596q0 -111 34 -154t107 -43h222v-90q-94 -63 -230 -63t-210 79q-75 79 -74 271v596h-383v-936h-152v936h-176z" />
    <glyph glyph-name="uni1E02" unicode="&#x1e02;" horiz-adv-x="1220" 
d="M317 860h424q238 0 238 244t-238 244h-424v-488zM317 152h424q246 0 246 270q0 123 -61 205t-185 82h-424v-557zM164 0v1499h577q203 0 296 -119t93 -270q0 -272 -188 -332q78 -18 137 -109t59 -258t-79 -280q-92 -131 -318 -131h-577zM526 1671v111q0 51 49 51h103
q47 0 47 -51v-111q0 -47 -47 -47h-103q-49 0 -49 47z" />
    <glyph glyph-name="uni1E03" unicode="&#x1e03;" horiz-adv-x="1134" 
d="M674 139q207 0 207 400q-1 237 -51 325t-156 88q-197 0 -402 -53v-666q231 -94 402 -94zM123 0v1608h147v-586q92 38 210 60t212 22t168 -47q172 -109 172 -518q0 -214 -67 -368q-37 -85 -111 -134t-174 -49t-228 48t-180 85l-41 -121h-108zM102 1796v111q0 51 50 51h102
q47 0 47 -51v-111q0 -47 -47 -47h-102q-50 0 -50 47z" />
    <glyph glyph-name="uni1E0A" unicode="&#x1e0a;" horiz-adv-x="1345" 
d="M315 158h406q129 0 217 83q164 155 164 488t-97 475t-284 144h-406v-1190zM164 0v1499h557q133 0 232 -50t155 -126q146 -199 145 -580q0 -224 -80 -421t-245 -277q-92 -45 -207 -45h-557zM553 1690v110q0 51 49 51h103q47 0 47 -51v-110q0 -47 -47 -48h-103
q-49 1 -49 48z" />
    <glyph glyph-name="uni1E0B" unicode="&#x1e0b;" horiz-adv-x="1134" 
d="M254 539q0 -399 207 -400q170 0 401 94v666q-205 53 -401 53q-107 0 -157 -88t-50 -325zM165 923q75 181 296 181q77 0 193 -23t208 -59v586h150v-1608h-109l-41 121q-51 -37 -179 -85t-228 -48t-174 49t-111 134q-68 156 -68 377t63 375zM831 1780v110q0 51 50 52h102
q47 0 47 -52v-110q0 -47 -47 -47h-102q-50 0 -50 47z" />
    <glyph glyph-name="uni1E1E" unicode="&#x1e1e;" horiz-adv-x="1161" 
d="M164 0v1233q0 141 73 206t185 60l647 -33v-118h-647q-49 0 -75 -20t-29 -38q-3 -20 -3 -57v-410l672 -20v-121l-672 -20v-662h-151zM549 1671v111q0 51 49 51h102q47 0 48 -51v-111q0 -47 -48 -47h-102q-49 0 -49 47z" />
    <glyph glyph-name="uni1E1F" unicode="&#x1e1f;" horiz-adv-x="819" 
d="M41 936v117l199 34v203q0 168 57 241q61 79 223 79q98 0 258 -49v-101l-252 2q-95 0 -115 -47t-20 -125v-203h303v-151h-303v-936h-151v936h-199zM428 1823v110q0 51 49 52h103q47 0 47 -52v-110q0 -47 -47 -47h-103q-49 0 -49 47z" />
    <glyph glyph-name="uni1E40" unicode="&#x1e40;" horiz-adv-x="1640" 
d="M113 0l98 1499h209l399 -1247l387 1247h207l115 -1499h-152l-92 1225l-385 -1225h-156l-397 1225l-82 -1225h-151zM713 1679v111q0 51 49 51h102q47 0 47 -51v-111q0 -47 -47 -47h-102q-49 0 -49 47z" />
    <glyph glyph-name="uni1E41" unicode="&#x1e41;" horiz-adv-x="1839" 
d="M123 0v1087h106l45 -131q12 8 50 30t68 39q29 17 96 42q90 33 183 33t175 -43t117 -117q193 160 438 160q143 0 239 -98t97 -252v-750h-152v750q0 90 -52 144t-132 54q-123 0 -212 -24t-190 -90v-834h-151v750q0 90 -52 144t-131 54q-141 0 -249 -48q-37 -15 -142 -66
v-834h-151zM932 1270v110q0 51 49 52h102q47 0 47 -52v-110q0 -47 -47 -47h-102q-49 0 -49 47z" />
    <glyph glyph-name="uni1E56" unicode="&#x1e56;" horiz-adv-x="1189" 
d="M274 762h465q98 0 152 59q53 59 51 247t-77 239q-37 25 -63 31t-63 8h-465v-584zM123 0v1499h616q358 0 359 -434q0 -335 -168 -417q-53 -26 -94 -32q-40 -6 -98 -6t-257 18t-207 23v-651h-151zM500 1694v110q0 51 49 51h102q47 0 47 -51v-110q0 -47 -47 -47h-102
q-49 0 -49 47z" />
    <glyph glyph-name="uni1E57" unicode="&#x1e57;" horiz-adv-x="1134" 
d="M674 135q106 0 156 88t51 326q0 399 -207 399q-172 0 -404 -94v-666q205 -53 404 -53zM123 -553v1640h108l39 -120q50 37 180 85t230 48t174 -49t111 -135q67 -155 67 -367q0 -410 -173 -518q-75 -47 -168 -47t-211 22t-210 60v-619h-147zM512 1294v111q0 51 49 51h103
q47 0 47 -51v-111q0 -47 -47 -47h-103q-49 0 -49 47z" />
    <glyph glyph-name="uni1E60" unicode="&#x1e60;" horiz-adv-x="1196" 
d="M133 1012v135q1 207 107 286t299 78q139 0 512 -49v-123l-512 21q-129 6 -191 -34t-63 -179v-135q0 -127 50 -164t159 -37h290q319 0 320 -352v-140q0 -207 -133 -277q-107 -58 -281 -58q-72 0 -253 18t-259 33v123q225 -23 512 -23q262 0 262 184v140q0 96 -37 148
t-131 52h-286q-235 0 -305 113q-60 94 -60 240zM516 1702v110q0 51 49 52h103q47 0 47 -52v-110q0 -47 -47 -47h-103q-49 0 -49 47z" />
    <glyph glyph-name="uni1E61" unicode="&#x1e61;" horiz-adv-x="1036" 
d="M82 733v94q0 133 65 202t239 69t513 -33v-117h-534q-96 0 -116 -36q-14 -25 -16 -85v-94q0 -80 35 -98q35 -17 97 -19h323q129 0 198 -72t68 -192v-100q0 -152 -74 -207t-192 -55q-190 0 -561 39v112h561q0 2 16 -1t45 13q54 28 54 99v100q0 57 -26 85t-89 28h-323
q-150 0 -217 57q-66 57 -66 211zM463 1292v111q0 51 49 51h102q47 0 48 -51v-111q0 -47 -48 -47h-102q-49 0 -49 47z" />
    <glyph glyph-name="uni1E6A" unicode="&#x1e6a;" horiz-adv-x="1183" 
d="M92 1348v151h1041v-151h-451v-1348h-152v1348h-438zM492 1679v111q0 51 49 51h102q23 0 36 -14t13 -37v-111q0 -47 -49 -47h-102q-21 0 -35 14t-14 33z" />
    <glyph glyph-name="uni1E6B" unicode="&#x1e6b;" horiz-adv-x="774" 
d="M41 938v115l203 37l37 303h114v-303h318v-152h-318v-549q0 -125 29 -173t88 -62q168 -43 182 -43v-109h-180q-270 0 -270 387v549h-203zM238 1565v110q0 51 49 51h102q47 0 47 -51v-110q0 -47 -47 -47h-102q-49 0 -49 47z" />
    <glyph glyph-name="Wgrave" unicode="&#x1e80;" horiz-adv-x="1970" 
d="M92 1499h166l436 -1235l371 1235h172l-139 -479l272 -768l383 1247h166l-469 -1499h-152l-280 766l-248 -766h-152zM682 1894h195l219 -272h-142z" />
    <glyph glyph-name="wgrave" unicode="&#x1e81;" horiz-adv-x="1640" 
d="M41 1087h166l321 -864l283 864h164l-111 -348l238 -516l332 864h165l-415 -1087h-152l-241 532l-179 -532h-163zM487 1483h195l219 -273h-141z" />
    <glyph glyph-name="Wacute" unicode="&#x1e82;" horiz-adv-x="1970" 
d="M92 1499h166l436 -1235l371 1235h172l-139 -479l272 -768l383 1247h166l-469 -1499h-152l-280 766l-248 -766h-152zM956 1622l220 272h194l-272 -272h-142z" />
    <glyph glyph-name="wacute" unicode="&#x1e83;" horiz-adv-x="1640" 
d="M41 1087h166l321 -864l283 864h164l-111 -348l238 -516l332 864h165l-415 -1087h-152l-241 532l-179 -532h-163zM762 1210l219 273h195l-273 -273h-141z" />
    <glyph glyph-name="Wdieresis" unicode="&#x1e84;" horiz-adv-x="1970" 
d="M92 1499h166l436 -1235l371 1235h172l-139 -479l272 -768l383 1247h166l-469 -1499h-152l-280 766l-248 -766h-152zM1184 1726q0 43 30 73q31 30 74 30t73 -30t30 -73q0 -44 -30 -74t-73 -30q-44 0 -74 30t-30 74zM662 1726q0 43 30 73q31 30 74 30t73 -30q29 -30 29 -73
q0 -44 -30 -74t-72 -30q-44 0 -74 30t-30 74z" />
    <glyph glyph-name="wdieresis" unicode="&#x1e85;" horiz-adv-x="1640" 
d="M41 1087h166l321 -864l283 864h164l-111 -348l238 -516l332 864h165l-415 -1087h-152l-241 532l-179 -532h-163zM989 1315q0 43 31 73t74 30q42 0 72 -30t30 -73t-30 -74t-72 -31t-74 31q-31 31 -31 74zM467 1315q0 43 31 73q32 30 74 30t72 -30t30 -73t-30 -74t-73 -31
t-73 31t-31 74z" />
    <glyph glyph-name="Ygrave" unicode="&#x1ef2;" horiz-adv-x="1290" 
d="M721 0h-152v532l-477 967h166l387 -786l428 786h166l-518 -967v-532zM324 1905h192l221 -273h-143z" />
    <glyph glyph-name="ygrave" unicode="&#x1ef3;" horiz-adv-x="1134" 
d="M43 1087h166l264 -849q14 -42 35 -60q21 -19 42 -23t37 -2q15 3 19 3l2 2l312 929h170l-480 -1431l-153 -209h-95l193 553q-176 0 -246 225zM244 1493h194l219 -272h-141z" />
    <glyph glyph-name="endash" unicode="&#x2013;" horiz-adv-x="1050" 
d="M41 512v154h969v-154h-969z" />
    <glyph glyph-name="emdash" unicode="&#x2014;" horiz-adv-x="1507" 
d="M41 516v154h1425v-154h-1425z" />
    <glyph glyph-name="quoteleft" unicode="&#x2018;" horiz-adv-x="552" 
d="M164 1141v202q0 89 41 127t91 44q50 7 81 2v-72q-70 2 -70 -70v-57h25q57 0 57 -55v-121q0 -61 -57 -62h-115q-53 1 -53 62z" />
    <glyph glyph-name="quoteright" unicode="&#x2019;" horiz-adv-x="552" 
d="M164 1337v121q0 61 57 62h115q53 0 53 -62v-203q1 -59 -21 -99t-54 -54q-67 -30 -117 -25l-21 4v72q70 -2 70 72v55h-25q-57 0 -57 57z" />
    <glyph glyph-name="quotesinglbase" unicode="&#x201a;" horiz-adv-x="552" 
d="M164 55v121q0 61 57 62h115q53 0 53 -62v-203q1 -59 -21 -100t-54 -54q-70 -28 -117 -24l-21 4v72q70 -2 70 72v55h-25q-57 0 -57 57z" />
    <glyph glyph-name="quotedblleft" unicode="&#x201c;" horiz-adv-x="856" 
d="M150 1141v202q0 88 40 126t93 46q52 7 79 1v-72q-70 2 -69 -70v-55h24q57 0 58 -57v-121q0 -61 -58 -62h-114q-53 1 -53 62zM481 1141v202q0 59 23 99t53 55q62 28 117 23l22 -4v-72q-72 2 -71 -70v-55h26q55 0 56 -57v-121q0 -61 -56 -62h-114q-56 1 -56 62z" />
    <glyph glyph-name="quotedblright" unicode="&#x201d;" horiz-adv-x="856" 
d="M481 1337v121q0 61 58 62h114q53 0 54 -62v-203q0 -59 -22 -99q-21 -40 -53 -54q-67 -30 -116 -25l-22 4v72q70 -2 69 72v55h-24q-58 0 -58 57zM150 1337v121q0 61 55 62h114q55 0 56 -62v-203q0 -59 -23 -99q-24 -40 -54 -54q-64 -30 -116 -25l-22 4v72q70 -2 69 72v55
h-24q-55 0 -55 57z" />
    <glyph glyph-name="quotedblbase" unicode="&#x201e;" horiz-adv-x="856" 
d="M481 55v121q0 61 58 62h114q53 0 54 -62v-203q0 -59 -22 -100q-21 -41 -53 -54q-69 -29 -116 -24l-22 4v72q70 -2 69 72v55h-24q-58 0 -58 57zM150 55v121q0 61 55 62h114q55 0 56 -62v-203q0 -59 -23 -100q-24 -41 -54 -54q-67 -28 -116 -24l-22 4v72q70 -2 69 72v55
h-24q-55 0 -55 57z" />
    <glyph glyph-name="dagger" unicode="&#x2020;" horiz-adv-x="786" 
d="M41 1001v121l272 21l17 434h129l16 -434l270 -21v-121l-270 -20l-18 -1128h-129l-15 1128z" />
    <glyph glyph-name="daggerdbl" unicode="&#x2021;" horiz-adv-x="827" 
d="M41 356v121l274 21l-2 483l-272 20v121l272 21l19 434h127l16 -434l270 -21v-121l-270 -20l-6 -483l276 -21v-121l-280 -20l-8 -483h-129l-9 483z" />
    <glyph glyph-name="bullet" unicode="&#x2022;" horiz-adv-x="638" 
d="M174 698v164q0 72 68 72h151q72 0 72 -72v-164q0 -66 -72 -65h-151q-68 -1 -68 65z" />
    <glyph glyph-name="ellipsis" unicode="&#x2026;" horiz-adv-x="1671" 
d="M174 47v117q0 51 49 51h109q51 0 51 -51v-117q0 -47 -51 -47h-109q-49 0 -49 47zM731 47v117q0 51 49 51h109q51 0 51 -51v-117q0 -47 -51 -47h-109q-49 0 -49 47zM1288 47v117q0 51 49 51h109q51 0 51 -51v-117q0 -47 -51 -47h-109q-49 0 -49 47z" />
    <glyph glyph-name="perthousand" unicode="&#x2030;" horiz-adv-x="2828" 
d="M2144 260q0 -74 27 -98t100 -25h207q86 0 109 25t22 98v272q0 74 -26 99q-27 25 -101 24h-207q-83 -1 -107 -25t-24 -98v-272zM2011 260v272q0 136 57 196t207 60h207q144 0 202 -60t58 -196v-272q0 -135 -57 -195t-207 -61h-207q-145 0 -203 60t-57 196zM1272 260
q0 -74 26 -98t101 -25h207q86 0 108 25t23 98v272q0 74 -27 99t-100 24h-207q-84 -1 -108 -25t-23 -98v-272zM1139 260v272q0 136 57 196t207 60h207q145 0 202 -60t58 -196v-272q0 -135 -58 -195t-206 -61h-207q-145 0 -203 60t-57 196zM465 0l897 1499h145l-897 -1499
h-145zM219 971q0 -74 27 -99t100 -24h207q86 0 109 24t22 99v272q0 75 -27 99t-100 24h-207q-84 0 -108 -25t-23 -98v-272zM86 971v272q0 135 57 195t207 61h207q145 0 203 -60t57 -196v-272q0 -135 -57 -195t-207 -61h-207q-145 0 -203 60q-57 61 -57 196z" />
    <glyph glyph-name="guilsinglleft" unicode="&#x2039;" horiz-adv-x="731" 
d="M102 725l422 416l107 -107l-318 -309l328 -319l-106 -107z" />
    <glyph glyph-name="guilsinglright" unicode="&#x203a;" horiz-adv-x="731" 
d="M102 406l328 319l-317 309l106 107l422 -416l-432 -426z" />
    <glyph glyph-name="fraction" unicode="&#x2044;" horiz-adv-x="477" 
d="M-184 0l712 1499h134l-713 -1499h-133z" />
    <glyph glyph-name="zerosuperior" unicode="&#x2070;" horiz-adv-x="958" 
d="M252 1063q0 -63 22 -85t97 -22h223q74 0 94 24t21 83v506q0 57 -23 82t-92 24h-223q-72 1 -96 -25t-23 -81v-506zM123 1055v522q0 123 61 174t178 51h240q231 0 232 -225v-522q0 -135 -58 -181t-174 -45h-240q-175 0 -220 105q-19 47 -19 121z" />
    <glyph glyph-name="foursuperior" unicode="&#x2074;" horiz-adv-x="854" 
d="M575 1210v248l58 98h69v-346h121v-106l-121 -27v-246h-127v246h-497l-45 49l426 676h145l-371 -592h342z" />
    <glyph glyph-name="fivesuperior" unicode="&#x2075;" horiz-adv-x="858" 
d="M113 950h432q104 0 104 113v146q0 45 -15 60q-34 34 -89 36h-236q-90 0 -90 -101h-106l30 598h605v-127h-486l-16 -282q48 48 243 41q59 -2 64 -2q115 0 169 -66t54 -180v-131q0 -121 -60 -177t-163 -57q-274 0 -440 29v100z" />
    <glyph glyph-name="sixsuperior" unicode="&#x2076;" horiz-adv-x="901" 
d="M240 1276q0 -317 137 -318h217q51 0 74 25t22 80v125q0 51 -22 69q-23 18 -74 19h-354zM784 1688h-413q-125 0 -131 -314q262 29 374 29t157 -57q46 -57 46 -150v-149q0 -107 -58 -161t-157 -55h-219q-61 -1 -107 19t-85 72q-82 108 -78 410t81 397q38 47 76 64
q120 53 514 -3v-102z" />
    <glyph glyph-name="sevensuperior" unicode="&#x2077;" horiz-adv-x="751" 
d="M31 1679v127h653l35 -63l-373 -912h-143l350 848h-522z" />
    <glyph glyph-name="eightsuperior" unicode="&#x2078;" horiz-adv-x="954" 
d="M262 1499q0 -113 100 -113h228q102 0 102 113v66q0 73 -26 97t-86 24h-199q-71 0 -95 -26t-24 -95v-66zM262 1049q0 -51 22 -71t83 -22h229q96 0 96 93v102q0 106 -94 106h-236q-100 0 -100 -106v-102zM135 1040v119q0 113 113 148q-113 37 -113 184v82q1 133 63 186
t175 53h225q111 0 166 -55t55 -184v-82q5 -61 -25 -102q-31 -42 -73 -52q49 -8 74 -65t24 -113v-119q0 -213 -215 -213h-246q-129 -1 -176 57t-47 156z" />
    <glyph glyph-name="ninesuperior" unicode="&#x2079;" horiz-adv-x="901" 
d="M219 1458q0 -51 23 -69t73 -19h355q0 317 -131 318h-224q-51 0 -73 -25t-23 -80v-125zM92 1450v149q0 107 58 161t157 55h219q60 1 106 -19t86 -72q81 -106 78 -412q-3 -305 -76 -393q-38 -47 -77 -65t-96 -23q-219 -16 -422 25v102h412q127 0 133 314q-262 -29 -374 -29
q-112 -1 -158 57t-46 150z" />
    <glyph glyph-name="zeroinferior" unicode="&#x2080;" horiz-adv-x="958" 
d="M252 -176q0 -63 22 -85t97 -22h223q74 0 94 24t21 83v506q0 57 -23 82t-92 24h-223q-72 0 -96 -26t-23 -80v-506zM123 -184v522q0 123 61 174t178 51h240q231 0 232 -225v-522q0 -134 -58 -180t-174 -46h-240q-175 0 -220 105q-19 47 -19 121z" />
    <glyph glyph-name="oneinferior" unicode="&#x2081;" horiz-adv-x="555" 
d="M422 567v-975h-127v834l-262 -72v101l262 112h127z" />
    <glyph glyph-name="twoinferior" unicode="&#x2082;" horiz-adv-x="792" 
d="M66 453q-2 1 -2 25t2 46v25q254 31 374 31q266 0 267 -279q0 -72 -37 -154t-77 -138t-114 -130q-75 -74 -99 -94t-77 -66h402v-127h-633v119q16 15 83 65q234 177 320 291q100 128 99 220t-35 129q-35 37 -121 37h-352z" />
    <glyph glyph-name="threeinferior" unicode="&#x2083;" horiz-adv-x="831" 
d="M582 -164v47q0 137 -140 142l-290 10v96l290 14q141 6 142 131v46q0 123 -142 122h-381v88q111 37 219 37h181q125 -1 186 -69t62 -170v-72q0 -68 -29 -116t-72 -64q100 -63 101 -193v-57q1 -119 -57 -181t-201 -63h-167q-97 0 -214 37l2 88l362 2q82 0 115 29t33 96z
" />
    <glyph glyph-name="fourinferior" unicode="&#x2084;" horiz-adv-x="854" 
d="M575 -29v248l58 98h69v-346h121v-106l-121 -27v-246h-127v246h-497l-45 49l426 676h145l-371 -592h342z" />
    <glyph glyph-name="fiveinferior" unicode="&#x2085;" horiz-adv-x="858" 
d="M748 563v-127h-486l-16 -282q48 48 243 41q59 -2 64 -2q115 0 169 -66t54 -180v-131q0 -121 -60 -177t-163 -57q-274 0 -440 29v100h432q104 0 104 113v146q0 45 -15 60q-34 34 -89 36h-236q-90 0 -90 -101h-106l30 598h605z" />
    <glyph glyph-name="sixinferior" unicode="&#x2086;" horiz-adv-x="901" 
d="M240 37q0 -317 137 -318h217q51 0 74 25t22 80v125q0 51 -22 69q-23 18 -74 19h-354zM784 449h-413q-125 0 -131 -314q262 29 374 29q204 0 203 -207v-150q0 -106 -58 -160t-157 -55h-219q-61 0 -107 20t-85 72q-82 108 -78 410q4 303 81 395q38 47 76 65t95 21
q221 14 419 -24v-102z" />
    <glyph glyph-name="seveninferior" unicode="&#x2087;" horiz-adv-x="751" 
d="M31 440v127h653l35 -63l-373 -912h-143l350 848h-522z" />
    <glyph glyph-name="eightinferior" unicode="&#x2088;" horiz-adv-x="954" 
d="M262 260q0 -113 100 -113h228q102 0 102 113v66q0 72 -26 96t-86 24h-199q-71 0 -95 -26t-24 -94v-66zM262 -88v-102q0 -52 22 -72t83 -21h229q96 0 96 93v102q0 106 -94 106h-236q-100 0 -100 -106zM135 -80q0 113 113 148q-113 37 -113 184v82q1 133 63 186t175 53h225
q111 0 166 -55t55 -184v-82q5 -61 -25 -102q-31 -42 -73 -52q49 -8 74 -65t24 -113v-119q0 -213 -215 -213h-246q-129 0 -176 58t-47 155v119z" />
    <glyph glyph-name="nineinferior" unicode="&#x2089;" horiz-adv-x="901" 
d="M219 219q0 -51 23 -69t73 -19h355q0 317 -131 318h-224q-51 0 -73 -25t-23 -80v-125zM92 211v149q0 106 58 160t157 55h219q60 0 106 -19q46 -20 86 -72q81 -106 78 -410t-76 -395q-38 -46 -77 -64t-96 -23q-215 -16 -422 25v102h412q127 0 133 314q-262 -29 -374 -29
t-158 58t-46 149z" />
    <glyph glyph-name="Euro" unicode="&#x20ac;" horiz-adv-x="1251" 
d="M221 1000q0 167 37 258q16 42 51 96t85 85q120 77 298 77t510 -62v-121q-334 31 -474 31t-208 -27q-115 -45 -138 -209q-9 -61 -9 -165l479 -15v-94l-479 -14v-207l479 -15v-96q-62 0 -272 -6t-207 -8q0 -369 327 -369q198 0 426 25l84 10v-115q-252 -72 -510 -71
q-127 0 -216 42t-140 95t-87 153t-36 230l-180 14v96l180 15v207l-180 16v88l180 19v37z" />
    <glyph glyph-name="afii61289" unicode="&#x2113;" horiz-adv-x="790" 
d="M330 1282v-471q233 315 166 500q-12 33 -52 48t-78 -4q-36 -19 -36 -73zM420 1513q106 -1 174 -83q66 -82 68 -218t-88 -304q-90 -167 -244 -306v-215q0 -177 45 -209q19 -14 45 -21q203 -56 209 -48v-109h-180q-147 2 -209 90q-61 88 -62 297v94q-29 -18 -63 -39l-54 66
q51 47 117 115v671q2 100 69 160t173 59z" />
    <glyph glyph-name="afii61352" unicode="&#x2116;" horiz-adv-x="2172" 
d="M147 0v1335q0 97 70 145t154 22t121 -109l548 -1223q12 -27 31 -23q18 4 19 29v987q0 176 95 259t249 83l387 -2q152 -4 211 -91t59 -271q0 -185 -60 -273t-210 -88h-135q-158 0 -214 104t-57 376h127q0 -247 45 -305q25 -32 47 -40t64 -8h110q80 0 118 41t38 166
q0 213 -68 242q-29 12 -88 14q-231 2 -378 2q-86 0 -138 -51t-51 -154v-1005q-1 -88 -67 -139t-148 -32t-121 109l-555 1235q-10 23 -30 18t-21 -32v-1321h-152z" />
    <glyph glyph-name="trademark" unicode="&#x2122;" horiz-adv-x="1417" 
d="M651 784l56 715h129l190 -485l164 485h133l63 -715h-131l-34 414l-138 -414h-108l-162 416l-31 -416h-131zM41 1368v131h530v-131h-198v-584h-131v584h-201z" />
    <glyph glyph-name="estimated" unicode="&#x212e;" horiz-adv-x="1478" 
d="M350 582q0 -18 19 -19h745q12 8 12 15v272q0 66 -129 134t-245 69q-116 0 -211 -39t-143 -82t-48 -70v-280zM356 528q-6 0 -6 -22v-273q0 -51 116 -121t251 -69q135 0 240 48t173 124h115q-119 -125 -235 -170t-271 -45q-283 0 -449 154t-167 388q0 234 172 396
q172 154 434 154t438 -136t189 -428h-1000z" />
    <glyph glyph-name="partialdiff" unicode="&#x2202;" horiz-adv-x="1323" 
d="M268 468q0 -155 102 -241t251 -86q106 0 186 67t120 166q75 185 77 345q-146 82 -350 82t-295 -89t-91 -244zM117 466q0 232 137 359t393 127q205 0 354 -116q-16 304 -108 416t-292 112t-368 -104l-47 96q88 57 136 84q134 76 282 76q551 0 551 -723q0 -320 -124 -552
q-63 -116 -167 -184t-239 -67q-217 0 -363 122q-145 122 -145 354z" />
    <glyph glyph-name="uni2206" unicode="&#x2206;" horiz-adv-x="1482" 
d="M272 152h947l-463 1146zM41 0l637 1499h151l613 -1499h-1401z" />
    <glyph glyph-name="product" unicode="&#x220f;" horiz-adv-x="1318" 
d="M41 1348v151h1237v-151h-178v-1348h-152v1348h-579v-1348h-152v1348h-176z" />
    <glyph glyph-name="summation" unicode="&#x2211;" horiz-adv-x="1200" 
d="M82 1499h1077v-151h-895l436 -795l-436 -805h895v-158h-1077v158l438 805l-438 795v151z" />
    <glyph glyph-name="minus" unicode="&#x2212;" horiz-adv-x="933" 
d="M41 653v152h852v-152h-852z" />
    <glyph glyph-name="radical" unicode="&#x221a;" horiz-adv-x="1286" 
d="M41 582v151h272l267 -522l514 1427h151l-583 -1638h-140l-301 582h-180z" />
    <glyph glyph-name="infinity" unicode="&#x221e;" horiz-adv-x="1609" 
d="M1186 901q-100 1 -181 -59q-82 -60 -135 -144q135 -201 297 -200q188 0 189 200q0 102 -35 152t-135 51zM422 901q-100 -1 -134 -51t-34 -149t40 -151t148 -52q162 0 297 200q-53 84 -135 144t-182 59zM102 698q0 354 340 355q111 1 206 -59t157 -156q61 96 157 155
t205 60q340 0 340 -355q0 -158 -79 -255t-261 -97q-240 0 -364 221q-125 -221 -361 -221q-182 0 -261 97t-79 255z" />
    <glyph glyph-name="integral" unicode="&#x222b;" horiz-adv-x="903" 
d="M675 1638q102 0 187 -51v-100h-180q-41 0 -71 -29q-30 -30 -45 -70q-40 -108 -40 -352v-856q0 -268 -46 -418q-56 -180 -232 -180q-131 0 -207 51v101h184q73 0 103 73q47 111 47 373v856q0 445 140 556q58 46 160 46z" />
    <glyph glyph-name="approxequal" unicode="&#x2248;" horiz-adv-x="1087" 
d="M403 1020q61 0 153 -38t144 -38t86 10t78 34q45 24 76 36l45 -86q-18 -12 -78 -60t-109 -68q-50 -19 -102 -19q-52 1 -144 39t-146 38t-93 -12t-86 -34t-82 -31l-43 83q60 49 90 71q30 23 90 49t121 26zM700 582q52 0 86 10t78 34q45 24 76 36l45 -87q-18 -12 -78 -60
t-109 -68q-50 -19 -102 -19t-144 39t-146 39t-93 -12t-86 -34t-82 -32l-43 84q60 49 90 71q30 23 90 49t121 26t153 -38t144 -38z" />
    <glyph glyph-name="notequal" unicode="&#x2260;" horiz-adv-x="956" 
d="M41 434v162h301l156 256h-457v162h555l94 153h125l-94 -153h194v-162h-292l-156 -256h448v-162h-546l-107 -176h-125l107 176h-203z" />
    <glyph glyph-name="lessequal" unicode="&#x2264;" horiz-adv-x="972" 
d="M102 807v164l768 332v-164l-565 -250l565 -271v-167zM102 213v152h770v-152h-770z" />
    <glyph glyph-name="greaterequal" unicode="&#x2265;" horiz-adv-x="972" 
d="M104 451v167l566 271l-566 250v164l768 -332v-164zM102 213v152h770v-152h-770z" />
    <glyph glyph-name="lozenge" unicode="&#x25ca;" horiz-adv-x="1069" 
d="M223 764l318 -563l307 563l-307 545zM41 764l424 735h151l412 -735l-412 -764h-151z" />
    <glyph glyph-name="f_f" unicode="&#xfb00;" horiz-adv-x="1601" 
d="M41 936v117l203 34v183q0 167 57 240q112 144 481 30v-100l-252 2q-95 0 -115 -47t-20 -125v-183h627v203q0 168 57 241q61 79 223 79q98 0 259 -49v-101l-252 2q-96 0 -115 -46q-20 -46 -20 -126v-203h299v-151h-304v-936h-151v936h-627v-936h-151v936h-199z" />
    <glyph glyph-name="f_f_i" unicode="&#xfb03;" horiz-adv-x="1990" 
d="M41 936v117l203 34v183q0 167 57 240q112 144 481 30v-100l-252 2q-95 0 -115 -47t-20 -125l-4 -183h590v109q0 184 110 299q109 115 279 115t397 -70v-100l-350 22q-117 8 -201 -53t-83 -213v-109l735 -20v-1067h-154v936h-586v-936h-151v936h-586v-936h-151v936h-199z
" />
    <glyph glyph-name="ffl" unicode="&#xfb04;" horiz-adv-x="2205" 
d="M41 936v117l203 34v183q0 167 57 240q112 144 481 30v-100l-252 2q-95 0 -115 -47t-20 -125l-4 -183h590v109q0 182 80 296t254 114h551v-1219q0 -129 24 -173t92 -62q168 -43 183 -43v-109h-180q-145 0 -208 86q-62 86 -63 301v1075h-364q-109 0 -163 -55t-54 -211v-109
h299v-151h-304v-936h-151v936h-586v-936h-151v936h-199z" />
    <glyph glyph-name="s_t" unicode="&#xfb06;" horiz-adv-x="1812" 
d="M82 721v98q0 133 65 202q66 69 218 69h925l37 303h115v-303h317v-148h-317v-553q0 -175 47 -209q20 -14 126 -38t107 -25v-115h-159q-147 0 -210 87q-62 87 -63 300v553l-925 -2q-96 0 -116 -36q-14 -24 -16 -85v-98q1 -82 37 -100q36 -17 95 -17h323q129 0 198 -73
t68 -191v-88q0 -152 -74 -207t-192 -55q-190 0 -561 39v112h561q0 2 16 -1t45 13q54 28 54 99v88q0 57 -26 85t-89 28h-323q-150 0 -217 57q-66 57 -66 211z" />
    <glyph glyph-name="exclamdown.alt" horiz-adv-x="550" 
d="M182 0l15 1096h153l15 -1096h-183zM168 1333v117q0 47 47 47h113q49 0 49 -47v-117q0 -51 -49 -51h-113q-47 0 -47 51z" />
    <glyph glyph-name="zero.oldstyle" horiz-adv-x="1316" 
d="M295 332q0 -94 58 -137t143 -43h335q190 0 191 180v629q0 180 -191 180h-335q-102 0 -152 -50t-49 -130v-629zM143 332v629q-1 159 99 245t254 86h335q179 0 261 -90t82 -241v-629q0 -332 -343 -332h-335q-154 0 -254 80t-99 252z" />
    <glyph glyph-name="one.oldstyle" horiz-adv-x="731" 
d="M557 1294v-1294h-151v1122l-345 -110v108l345 174h151z" />
    <glyph glyph-name="two.oldstyle" horiz-adv-x="1222" 
d="M84 1155v111q365 51 621 41q209 1 312 -101t103 -282q0 -98 -63 -209t-151 -197t-224 -190q-135 -104 -272 -176h700v-152h-1014v139q685 378 828 638q43 79 43 151q0 236 -265 227h-618z" />
    <glyph glyph-name="three.oldstyle" horiz-adv-x="1257" 
d="M586 -209q-311 0 -471 57l2 97h610q221 0 221 190v121q0 209 -209 217l-497 14v119l497 21q213 10 213 202v142q0 94 -62 140t-151 46h-637v94q146 54 416 59q108 1 254 -1q146 -1 239 -97t93 -241v-142q0 -225 -135 -278q135 -86 135 -295v-121q0 -344 -365 -344h-153z
" />
    <glyph glyph-name="four.oldstyle" horiz-adv-x="1234" 
d="M858 338v424l76 153h76v-577h184v-121l-184 -39v-379h-152v379h-747l-70 76l657 1040h181l-603 -956h582z" />
    <glyph glyph-name="five.oldstyle" horiz-adv-x="1269" 
d="M1114 369v-234q0 -98 -34 -171q-34 -72 -88 -108q-104 -69 -214 -69q-208 0 -318 8t-304 41v113h622q96 0 141 55q44 55 44 135v226q0 137 -80 174q-41 18 -105 18h-315q-68 0 -118 -39t-50 -115h-135l45 891h864v-151h-725l-25 -496q56 68 261 68l198 -6q174 1 255 -91
t81 -249z" />
    <glyph glyph-name="six.oldstyle" horiz-adv-x="1275" 
d="M285 725q0 -456 138 -548q42 -28 95 -27h305q90 0 135 32t46 133v256q0 154 -181 154h-538zM133 786q-1 375 103 550t249 175q334 0 619 -38v-113h-592q-66 0 -113 -55t-78 -181t-36 -290q367 43 547 43t251 -82q70 -82 70 -224v-268q0 -305 -330 -305h-305
q-90 0 -156 34t-120 118q-110 172 -109 636z" />
    <glyph glyph-name="seven.oldstyle" horiz-adv-x="1118" 
d="M61 1143v151h940l56 -98l-543 -1401h-180l528 1348h-801z" />
    <glyph glyph-name="eight.oldstyle" horiz-adv-x="1298" 
d="M305 1012q1 -92 59 -132t128 -40h325q176 0 176 172v139q0 111 -44 159t-136 48h-299q-111 0 -160 -39t-49 -168v-139zM305 309q0 -158 209 -157h297q74 0 128 41t54 116v215q0 82 -51 124t-125 42h-325q-80 0 -134 -39t-53 -127v-215zM154 315v201q0 70 28 118
q29 48 62 66t84 35q-90 31 -132 112t-42 175v133q0 195 94 275t266 79h299q168 0 250 -84t82 -270v-133q4 -52 -14 -108q-36 -110 -140 -130q76 -14 116 -100t38 -168v-201q0 -95 -33 -161t-87 -98q-94 -56 -214 -56h-297q-100 0 -172 26t-108 60q-80 74 -80 229z" />
    <glyph glyph-name="nine.oldstyle" horiz-adv-x="1275" 
d="M272 721q0 -154 181 -154h538q0 257 -33 362q-16 54 -39 106q-50 108 -161 108h-305q-89 0 -135 -33t-46 -133v-256zM123 721v268q0 305 330 305h305q90 0 156 -34t119 -117q110 -171 110 -637q1 -375 -103 -550t-249 -175q-410 0 -619 39v112h592q168 0 215 369
q10 78 12 158q-365 -43 -547 -43t-251 82q-70 82 -70 223z" />
    <glyph glyph-name="questiondown.alt" horiz-adv-x="1107" 
d="M557 1337v117q0 47 47 47h113q49 0 49 -47v-117q0 -51 -49 -51h-113q-47 0 -47 51zM82 367v206q0 199 138 278t360 44v207h153v-332q-195 4 -286 0t-153 -53t-63 -144v-206q0 -121 66 -174t215 -54l555 2v-112q-125 -18 -167 -23l-113 -11q-69 -7 -91 -7t-96 -3
q-76 -3 -111 3q-217 0 -312 106t-95 273z" />
    <glyph glyph-name="at.alt" horiz-adv-x="1732" 
d="M614 393q0 -35 38 -69t90 -32q52 1 124 21q72 19 105 35t114 55v252l-348 -32q-59 -6 -92 -44t-31 -94v-92zM920 1208q129 0 221 -66t92 -220v-762h-115l-28 131l-21 -17q-186 -130 -344 -133q-113 -2 -189 67t-73 173v108q0 125 69 199q70 74 195 74h358q2 156 0 156
q0 82 -41 110t-131 29h-434q-90 0 -141 -37t-51 -148v-712q0 -211 192 -211h715q121 0 166 50t45 161v1048q0 115 -57 174t-154 60h-827v96q276 57 589 55l238 -2q168 -4 265 -100t97 -283v-1048q0 -365 -362 -365h-715q-160 0 -252 94t-92 271l-2 712q0 156 77 240
q34 37 104 67t165 29h441z" />
    <glyph glyph-name="g.salt" horiz-adv-x="1136" 
d="M254 549q0 -209 29 -287q49 -131 196 -131q115 0 186 9t197 42v766h-383q-225 0 -225 -399zM1014 -213q0 -176 -102 -266t-224 -78l-528 49v100h528q174 0 174 195v272q-197 -80 -383 -79q-224 0 -306 164q-71 144 -71 406q0 263 94 406q94 144 281 144q186 0 349 -22
t188 -25v-1266z" />
    <glyph glyph-name="ampersand.salt" horiz-adv-x="1937" 
d="M530 463h457q73 0 97 9q24 10 28 28t4 68t-21 67q-22 16 -108 16h-264q-55 0 -83 -4q-80 -11 -98 -79q-12 -39 -12 -105zM242 586q0 -61 41 -92t96 -31q0 180 85 260t259 80h264q59 0 98 -6t86 -29q97 -47 97 -202q0 -154 -62 -204t-219 -49h-457q0 -76 22 -100
q22 -25 36 -35q32 -26 176 -26h336q139 0 232 57t93 174v555h-903q-205 0 -243 -41q-37 -41 -37 -129v-182zM90 586v182q0 197 101 259t331 63h903l37 303h115v-308h317v-106l-317 -41v-555q0 -294 -312 -366q-79 -17 -165 -17h-336q-195 0 -290 62t-95 253q-109 0 -199 69
t-90 202z" />
    <glyph glyph-name="a.superior" horiz-adv-x="761" 
d="M190 975q0 -82 98 -82t226 53l41 19v176l-274 -27q-90 -8 -91 -84v-55zM63 948v94q-1 84 55 134t150 51q287 0 287 2q2 61 0 63q0 102 -126 102t-341 -14v86q141 39 358 47q102 2 169 -51t67 -159v-529h-82l-43 100l-20 -10q-33 -22 -118 -60t-160 -38t-135 48t-61 134z
" />
    <glyph glyph-name="b.superior" horiz-adv-x="815" 
d="M459 893q156 0 155 242q0 151 -36 201t-115 50q-78 0 -110 -5t-45 -7t-49 -10l-54 -12v-400q16 -6 56 -20l60 -21q57 -18 138 -18zM78 774v1073h127v-395q147 61 249 61q102 1 157 -31q130 -73 130 -347q0 -369 -270 -369q-123 0 -266 100l-45 -92h-82z" />
    <glyph glyph-name="c.superior" horiz-adv-x="743" 
d="M63 1137q0 221 68 297q69 76 187 76t346 -44v-94q-180 10 -270 10t-112 -5t-46 -27q-43 -40 -45 -200q-1 -160 34 -210t121 -49l328 14v-96q-152 -41 -342 -45q-131 0 -200 76t-69 297z" />
    <glyph glyph-name="d.superior" horiz-adv-x="808" 
d="M190 1137q0 -244 156 -244q81 0 124 14t128 45v402q-12 2 -40 9l-36 9q-68 17 -163 17t-132 -51t-37 -201zM63 1137q0 273 128 347q56 32 159 32t250 -62v397h123v-1077h-82l-43 92q-143 -100 -266 -100q-269 0 -269 371z" />
    <glyph glyph-name="e.superior" horiz-adv-x="804" 
d="M190 1196h320q96 0 96 61q0 78 -41 101q-41 22 -162 22t-167 -39t-46 -145zM518 1069h-328q0 -109 31 -143t125 -35q285 0 371 12v-92q-170 -47 -383 -47q-145 0 -208 80t-63 272t61 293q61 100 273 98q80 0 130 -7q137 -19 181 -112q26 -56 26 -142t-57 -132
q-56 -45 -159 -45z" />
    <glyph glyph-name="f.superior" horiz-adv-x="671" 
d="M53 1376v101l154 22v135q0 215 196 215q86 0 215 -34v-89l-184 5q-70 0 -85 -28t-15 -83v-117h219v-127h-223v-602h-127v602h-150z" />
    <glyph glyph-name="g.superior" horiz-adv-x="854" 
d="M338 1077h133q129 0 129 158q0 61 -33 101t-96 40h-125q-80 0 -112 -36t-35 -105q-4 -158 139 -158zM188 614q0 -77 34 -93q34 -15 85 -15h215q59 0 82 24t23 74v10q0 82 -123 99l-316 37v-136zM63 596v86l56 90q-51 37 -51 123q0 43 22 81q23 38 72 44q-92 49 -92 215
q0 129 66 197q67 68 181 67h474v-78l-105 -45q12 -14 28 -58t15 -95q0 -138 -98 -221q-59 -50 -152 -50h-231q-51 0 -51 -42t51 -48l301 -35q90 -10 145 -67t56 -139v-17q0 -223 -207 -223h-256q-102 1 -163 55t-61 160z" />
    <glyph glyph-name="h.superior" horiz-adv-x="825" 
d="M481 1386q-130 0 -276 -73v-539h-127v1071h127v-442q14 8 85 51t119 51t85 8q116 -1 184 -69t67 -164v-506h-127v483q0 63 -38 97q-39 33 -99 32z" />
    <glyph glyph-name="i.superior" horiz-adv-x="296" 
d="M80 774v729h127v-729h-127zM70 1630v88q0 39 36 39h82q35 0 35 -39v-88q0 -35 -35 -35h-82q-36 0 -36 35z" />
    <glyph glyph-name="j.superior" horiz-adv-x="301" 
d="M80 401v1100h131v-733q4 -203 -39 -367h-92zM72 1638v88q0 39 37 39h81q35 0 35 -39v-88q0 -37 -35 -36h-81q-37 -1 -37 36z" />
    <glyph glyph-name="k.superior" horiz-adv-x="796" 
d="M78 774v1067h127v-602h53l301 256h182l-368 -315l364 -406h-166l-299 338h-67v-338h-127z" />
    <glyph glyph-name="l.superior" horiz-adv-x="473" 
d="M76 1032v811h127v-794q0 -86 15 -115t67 -41q121 -29 131 -29v-90h-137q-111 0 -157 58t-46 200z" />
    <glyph glyph-name="m.superior" horiz-adv-x="1376" 
d="M78 774v725h88l39 -100q16 8 81 50t115 50t104 8t116 -32q61 -33 88 -89q147 121 331 121q104 0 181 -65q76 -66 75 -168v-500h-127v477q0 57 -39 93t-96 36q-147 0 -284 -73v-533h-127v477q0 57 -41 93t-105 36t-100 -10q-35 -10 -57 -16t-40 -15q-18 -10 -75 -32v-533
h-127z" />
    <glyph glyph-name="n.superior" horiz-adv-x="825" 
d="M78 774v725h80l45 -94q92 55 108 62t62 27t121 19q116 -1 184 -69t67 -164v-506h-127v486q0 63 -37 96q-39 33 -81 33q-84 -1 -115 -9q-59 -16 -180 -67v-539h-127z" />
    <glyph glyph-name="o.superior" horiz-adv-x="815" 
d="M402 1378q-118 0 -165 -50t-47 -198t50 -192q50 -43 164 -43q116 0 162 42q46 41 46 193t-46 200t-164 48zM63 1132q0 186 76 280q77 93 265 93t262 -92q74 -91 74 -279t-76 -277q-74 -89 -260 -89t-264 89q-77 89 -77 275z" />
    <glyph glyph-name="p.superior" horiz-adv-x="808" 
d="M461 883q75 0 111 52t36 204q0 248 -147 247q-100 0 -262 -61v-407q137 -35 262 -35zM78 397v1106h82l39 -90q37 29 124 65t152 35q97 0 159 -61t82 -139t19 -174q0 -383 -260 -383q-137 0 -276 61v-420h-121z" />
    <glyph glyph-name="q.superior" horiz-adv-x="817" 
d="M354 879h84q41 0 166 34v473h-242q-172 1 -172 -247q0 -152 35 -200q16 -22 51 -41t78 -19zM63 1139q0 178 72 276t202 98t253 -16t141 -18v-1082h-127v416q-147 -61 -256 -61q-285 0 -285 387z" />
    <glyph glyph-name="r.superior" horiz-adv-x="684" 
d="M78 774v725h92l35 -104q14 8 87 52t121 52q49 8 109 8t88 -12v-123q-37 8 -103 8q-65 0 -117 -11t-78 -20t-107 -44v-531h-127z" />
    <glyph glyph-name="s.superior" horiz-adv-x="774" 
d="M63 1262v71q0 186 195 187q162 0 401 -27v-100h-380q-41 1 -61 -11t-24 -25q-3 -13 -4 -40v-49q0 -58 43 -69q16 -3 48 -3h241q88 0 134 -52t46 -138v-76q0 -178 -182 -178q-137 0 -422 32v97h400q8 -2 21 -4t35 14t21 57v51q0 37 -17 53t-60 17h-244q-100 -1 -146 43
t-45 150z" />
    <glyph glyph-name="t.superior" horiz-adv-x="630" 
d="M55 1376v99l152 24l33 207h94v-203h229v-127h-229v-332q0 -94 13 -116t99 -40l86 -18v-94h-120q-111 0 -158 58t-47 196v346h-152z" />
    <glyph glyph-name="u.superior" horiz-adv-x="811" 
d="M74 1006v493h127v-485q0 -57 40 -92t101 -35t85 7q25 7 51 13q26 5 38 13t42 20l40 16v543h127v-725h-82l-45 94q-20 -12 -70 -44q-100 -64 -208 -64q-109 0 -178 74q-68 74 -68 172z" />
    <glyph glyph-name="v.superior" horiz-adv-x="862" 
d="M51 1499h144l239 -534l232 534h141l-322 -725h-104z" />
    <glyph glyph-name="w.superior" horiz-adv-x="1255" 
d="M51 1499h144l239 -534l232 534h141l-109 -244l129 -290l232 534h141l-321 -725h-105l-147 320l-142 -320h-104z" />
    <glyph glyph-name="x.superior" horiz-adv-x="831" 
d="M53 774l289 367l-289 358h154l209 -256l196 256h158l-278 -358l284 -367h-155l-203 268l-209 -268h-156z" />
    <glyph glyph-name="y.superior" horiz-adv-x="899" 
d="M51 1501h139l220 -545q27 -59 69 -59l226 604h139l-352 -960l-121 -140h-90l149 369q-86 8 -139 135z" />
    <glyph glyph-name="z.superior" horiz-adv-x="774" 
d="M63 1372v127h635v-115l-438 -481h436v-127h-610v127l434 469h-457z" />
    <glyph glyph-name="zero.tnum" horiz-adv-x="1269" 
d="M270 332q0 -94 58 -137t143 -43h336q96 0 144 47t48 133v835q0 180 -192 181h-336q-101 0 -151 -50t-50 -131v-835zM119 332v835q0 160 99 246t253 86h336q176 0 260 -93t84 -239v-835q0 -332 -344 -332h-336q-154 0 -253 80t-99 252z" />
    <glyph glyph-name="one.tnum" horiz-adv-x="1269" 
d="M805 1499v-1347h334v-152h-840v152h352v1175l-372 -117v109l372 180h154z" />
    <glyph glyph-name="two.tnum" horiz-adv-x="1267" 
d="M115 1366v113q322 41 622 41q207 0 311 -127t105 -303q0 -113 -63 -242q-64 -128 -150 -232t-231 -237t-287 -227h731v-152h-1024v139q195 132 364 273q170 141 267 243q96 103 168 223t72 228t-66 184t-199 76h-620z" />
    <glyph glyph-name="three.tnum" horiz-adv-x="1269" 
d="M616 -14q-304 0 -469 57v96h611q94 0 149 31q72 37 72 160v121q0 209 -209 217l-496 14v119l496 20q213 10 213 203v141q0 91 -62 139t-151 48h-635v94q150 56 416 58q109 1 235 -1q164 -2 256 -97t93 -241v-141q0 -225 -136 -279q135 -86 136 -294v-121
q0 -344 -365 -344h-154z" />
    <glyph glyph-name="four.tnum" horiz-adv-x="1269" 
d="M877 543v424l73 153h78v-577h184v-121l-184 -39v-379h-151v379h-750l-70 76l660 1040h180l-602 -956h582z" />
    <glyph glyph-name="five.tnum" horiz-adv-x="1269" 
d="M156 154h622q96 0 141 55q44 55 44 135v225q0 139 -80 174q-41 18 -105 19h-315q-68 0 -118 -39t-50 -115h-135l45 891h864v-151h-725l-25 -496q67 82 381 64q63 -4 78 -3q174 0 255 -91t81 -249v-233q0 -98 -34 -171t-88 -109q-102 -68 -214 -68q-207 0 -317 8t-305 41
v113z" />
    <glyph glyph-name="six.tnum" horiz-adv-x="1269" 
d="M276 725q0 -455 139 -548q42 -28 95 -27h305q90 0 135 32t45 133v256q0 154 -180 154h-539zM125 786q0 375 103 550t249 175q322 0 619 -38v-113h-592q-66 0 -113 -55t-78 -179t-37 -292q365 43 547 43t252 -82t70 -224v-268q0 -305 -330 -305h-305q-90 0 -156 34
q-153 79 -201 360q-28 158 -28 394z" />
    <glyph glyph-name="seven.tnum" horiz-adv-x="1269" 
d="M137 1348v151h940l56 -98l-543 -1401h-180l528 1348h-801z" />
    <glyph glyph-name="eight.tnum" horiz-adv-x="1269" 
d="M291 1012q0 -92 58 -132t128 -40h326q176 0 176 172v139q0 111 -44 159t-136 48h-299q-111 0 -160 -39t-49 -168v-139zM291 309q0 -158 209 -157h297q74 0 128 41t54 116v215q0 82 -51 124t-125 42h-326q-80 0 -133 -39t-53 -127v-215zM139 315v201q0 70 29 118t61 66
q33 18 84 35q-90 31 -132 112t-42 175v133q0 195 94 275t267 79h299q168 0 250 -84t81 -270v-133q4 -50 -14 -107q-35 -110 -139 -131q76 -14 116 -100t37 -168v-201q0 -95 -32 -161q-76 -155 -301 -154h-297q-100 0 -172 26t-108 60q-81 76 -81 229z" />
    <glyph glyph-name="nine.tnum" horiz-adv-x="1269" 
d="M274 938q0 -154 181 -154h538q0 456 -138 548q-42 28 -95 28h-305q-89 0 -135 -33t-46 -133v-256zM125 938v268q0 305 330 305h305q90 1 156 -33t119 -118q110 -171 110 -637q1 -375 -103 -550t-249 -175q-399 0 -619 39v113h592q168 0 215 368q10 78 12 158
q-365 -43 -547 -43t-251 82q-70 82 -70 223z" />
    <glyph glyph-name="zero.tosf" horiz-adv-x="1269" 
d="M270 332q0 -94 58 -137t143 -43h336q96 0 144 47t48 133v629q0 180 -192 180h-336q-101 0 -151 -50t-50 -130v-629zM119 332v629q0 159 99 245t253 86h336q178 0 261 -91t83 -240v-629q0 -332 -344 -332h-336q-154 0 -253 80t-99 252z" />
    <glyph glyph-name="one.tosf" horiz-adv-x="1269" 
d="M788 1294v-1142h316v-152h-799v152h332v970l-344 -110v108l344 174h151z" />
    <glyph glyph-name="two.tosf" horiz-adv-x="1269" 
d="M117 1155v111q365 51 620 41q209 1 313 -101t103 -282q0 -98 -63 -209q-64 -111 -152 -197t-227 -193t-269 -173h701v-152h-1014v139q683 377 827 638q43 79 43 151q0 236 -264 227h-618z" />
    <glyph glyph-name="three.tosf" horiz-adv-x="1269" 
d="M616 -211q-304 0 -469 57v97h611q162 0 203 89q18 40 18 101v121q0 209 -209 217l-496 14v119l496 21q213 10 213 202v142q0 92 -62 139t-151 47h-635v94q146 54 416 59q109 1 235 -1q164 -1 256 -97t93 -241v-142q0 -225 -136 -278q135 -86 136 -295v-121
q0 -344 -365 -344h-154z" />
    <glyph glyph-name="four.tosf" horiz-adv-x="1269" 
d="M877 338v424l73 153h78v-577h184v-121l-184 -39v-379h-151v379h-750l-70 76l660 1040h180l-602 -956h582z" />
    <glyph glyph-name="five.tosf" horiz-adv-x="1269" 
d="M1114 369v-234q0 -98 -34 -171q-34 -72 -88 -108q-104 -69 -214 -69q-208 0 -318 8t-304 41v113h622q96 0 141 55q44 55 44 135v226q0 137 -80 174q-41 18 -105 18h-315q-68 0 -118 -39t-50 -115h-135l45 891h864v-151h-725l-25 -496q56 68 261 68l198 -6q174 1 255 -91
t81 -249z" />
    <glyph glyph-name="six.tosf" horiz-adv-x="1269" 
d="M276 725q0 -455 139 -548q42 -28 95 -27h305q90 0 135 32t45 133v256q0 154 -180 154h-539zM125 786q0 375 103 550t249 175q322 0 619 -38v-113h-592q-66 0 -113 -55t-78 -179t-37 -292q365 43 547 43t252 -82t70 -224v-268q0 -305 -330 -305h-305q-90 0 -156 34
q-153 79 -201 360q-28 158 -28 394z" />
    <glyph glyph-name="seven.tosf" horiz-adv-x="1269" 
d="M137 1143v151h940l56 -98l-543 -1401h-180l528 1348h-801z" />
    <glyph glyph-name="eight.tosf" horiz-adv-x="1269" 
d="M291 1012q0 -92 58 -132t128 -40h326q176 0 176 172v139q0 111 -44 159t-136 48h-299q-111 0 -160 -39t-49 -168v-139zM291 309q0 -158 209 -157h297q74 0 128 41t54 116v215q0 82 -51 124t-125 42h-326q-80 0 -133 -39t-53 -127v-215zM139 315v201q0 70 29 118t61 66
q33 18 84 35q-90 31 -132 112t-42 175v133q0 195 94 275t267 79h299q168 0 250 -84t81 -270v-133q4 -50 -14 -107q-35 -110 -139 -131q76 -14 116 -100t37 -168v-201q0 -95 -32 -161q-76 -155 -301 -154h-297q-100 0 -172 26t-108 60q-81 76 -81 229z" />
    <glyph glyph-name="nine.tosf" horiz-adv-x="1269" 
d="M274 721q0 -154 181 -154h538q0 456 -138 548q-42 28 -95 28h-305q-89 0 -135 -33t-46 -133v-256zM125 721v268q0 305 330 305h305q90 0 156 -34t119 -117q110 -171 110 -637q1 -375 -103 -550t-249 -175q-410 0 -619 39v112h592q168 0 215 369q10 78 12 158
q-365 -43 -547 -43t-251 82q-70 82 -70 223z" />
    <glyph glyph-name="gbreve.salt" horiz-adv-x="1136" 
d="M254 549q0 -209 29 -287q49 -131 196 -131q115 0 186 9t197 42v766h-383q-225 0 -225 -399zM1014 -213q0 -176 -102 -266t-224 -78l-528 49v100h528q174 0 174 195v272q-197 -80 -383 -79q-224 0 -306 164q-71 144 -71 406q0 263 94 406q94 144 281 144q186 0 349 -22
t188 -25v-1266zM367 1448h96q0 -57 42 -97t98 -40t97 37t41 100h97q0 -109 -73 -171q-73 -63 -164 -63t-163 65q-71 65 -71 169z" />
    <glyph glyph-name="gdotaccent.salt" horiz-adv-x="1136" 
d="M254 549q0 -209 29 -287q49 -131 196 -131q115 0 186 9t197 42v766h-383q-225 0 -225 -399zM1014 -213q0 -176 -102 -266t-224 -78l-528 49v100h528q174 0 174 195v272q-197 -80 -383 -79q-224 0 -306 164q-71 144 -71 406q0 263 94 406q94 144 281 144q186 0 349 -22
t188 -25v-1266zM502 1266v110q0 51 49 51h102q47 0 47 -51v-110q0 -47 -47 -47h-102q-49 0 -49 47z" />
    <glyph glyph-name="gcircumflex.salt" horiz-adv-x="1136" 
d="M254 549q0 -209 29 -287q49 -131 196 -131q115 0 186 9t197 42v766h-383q-225 0 -225 -399zM1014 -213q0 -176 -102 -266t-224 -78l-528 49v100h528q174 0 174 195v272q-197 -80 -383 -79q-224 0 -306 164q-71 144 -71 406q0 263 94 406q94 144 281 144q186 0 349 -22
t188 -25v-1266zM315 1214l240 267h145l213 -267h-145l-145 146l-160 -146h-148z" />
    <glyph glyph-name="c_t" horiz-adv-x="1757" 
d="M440 1092h807l37 301h115v-303h317v-156h-317v-545q1 -143 23 -181t98 -54q158 -37 159 -37v-115h-159q-147 0 -210 87q-62 87 -63 300v545h-807q-55 0 -86 -10q-30 -10 -62 -48q-57 -68 -58 -323q0 -254 46 -335t160 -81q210 0 404 17l78 6v-115q-197 -55 -482 -59
q-84 0 -142 19t-112 75q-104 108 -104 453t102 459q50 56 110 78t146 22z" />
    <glyph glyph-name="t_t" horiz-adv-x="1511" 
d="M41 938v115l203 37l37 303h114v-303h606l37 303h115v-303h317v-152h-317v-549q2 -143 24 -180t97 -55q158 -37 160 -37v-115h-160q-147 0 -210 87q-62 87 -63 300v549h-606v-549q2 -143 24 -180t97 -55q158 -37 160 -37v-115h-160q-147 0 -210 87q-62 87 -62 300v549
h-203z" />
    <glyph glyph-name="f_t" horiz-adv-x="1568" 
d="M41 936v117l203 34v203q0 168 57 241q61 79 223 79q98 0 258 -49v-101l-252 2q-95 0 -115 -47t-20 -125v-200h664l37 303h114v-303h318v-152h-318v-549q2 -143 24 -180t97 -55q158 -37 160 -37v-115h-160q-147 0 -210 87q-62 87 -62 300v549h-668v-938h-151v936h-199z
" />
    <glyph glyph-name="t_y" horiz-adv-x="1941" 
d="M41 938v115l203 37l37 303h114v-303h318q170 0 228 -44t108 -182l233 -626q21 -55 72 -74q20 -8 38 -8h21l4 2l312 929h172l-478 -1431l-157 -209h-103l209 553q-172 0 -254 225l-219 590q-23 63 -62 93q-40 30 -124 30h-318v-549q0 -174 47 -209q20 -14 126 -38t108 -25
v-115h-160q-147 0 -210 87q-62 87 -62 300v549h-203z" />
    <glyph glyph-name="f_y" horiz-adv-x="1992" 
d="M41 936v117l203 34v203q0 168 57 241q25 31 75 55t121 24t119 -16t96 -31q48 -16 70 -23v-100l-252 22q-94 8 -115 -43q-20 -51 -20 -129v-203h350q171 0 231 -44t114 -179l243 -624q21 -55 72 -74q21 -8 39 -8t22 2h2l310 930h172l-477 -1432l-158 -209h-103l209 553
q-37 0 -73 11t-92 65t-89 149l-227 588q-25 63 -68 92t-127 29h-354v-936h-151v936h-199z" />
    <glyph glyph-name="gcommaaccent.salt" horiz-adv-x="1136" 
d="M479 948q-109 0 -157 -76q-24 -38 -46 -98t-22 -206v-91q0 -163 28 -213q9 -18 22 -46t59 -58q47 -29 139 -29t163 9t197 42v766h-383zM102 549q0 264 94 407q94 144 281 144q186 0 349 -22t188 -25v-1266q0 -90 -31 -162q-54 -126 -183 -170q-56 -18 -112 -12l-528 49
v100h528q84 0 129 50t45 145v272q-92 -37 -200 -59q-328 -66 -451 86q-81 97 -99 279q-10 80 -10 184zM500 1264v166q0 50 18 82t59 50t99 11v-60q-57 2 -58 -57v-47h21q45 0 45 -45v-100q0 -49 -45 -50h-94q-45 1 -45 50z" />
    <glyph glyph-name="exclam.smcp" horiz-adv-x="550" 
d="M180 1167h182l-14 -825h-153zM168 47v117q0 51 49 51h113q47 0 47 -51v-117q0 -47 -47 -47h-113q-49 0 -49 47z" />
    <glyph glyph-name="quotedbl.smcp" horiz-adv-x="776" 
d="M451 1305h151v-138l-20 -274h-109l-22 274v138zM174 1305h152v-138l-21 -274h-108l-23 274v138z" />
    <glyph glyph-name="numbersign.smcp" horiz-adv-x="1157" 
d="M418 461h254l39 241h-252zM41 356l16 105h252l43 241h-256l15 105h258l61 360h107l-62 -360h254l59 360h107l-59 -360h282l-14 -105h-285l-41 -241h287l-16 -105h-287l-62 -358h-106l59 358h-252l-61 -358h-107l60 358h-252z" />
    <glyph glyph-name="dollar.smcp" horiz-adv-x="1028" 
d="M766 285v77q0 66 -44 107t-120 41h-168q-172 0 -252 79t-80 206v63q0 148 76 231q83 86 277 89v133h131v-137q69 -5 293 -33v-117h-424q-97 0 -149 -32t-52 -134v-63q0 -139 180 -140h168q152 0 235 -90t83 -203v-77q0 -150 -100 -228t-234 -71v-127h-131v135l-316 29
v114l449 2q41 0 76 8q34 8 68 43t34 95z" />
    <glyph glyph-name="percent.smcp" horiz-adv-x="1665" 
d="M1122 254q0 -74 27 -98t100 -25h92q84 0 108 25t24 98v127q0 75 -27 99t-100 24h-93q-87 0 -109 -25t-22 -98v-127zM989 254v127q-1 135 57 195t207 61h93q145 0 202 -60t58 -196v-127q0 -136 -58 -196t-207 -60h-92q-145 0 -203 60t-57 196zM406 0l708 1167h146
l-709 -1167h-145zM193 784q1 -74 27 -98t99 -24h93q84 0 108 24t23 98v127q0 74 -27 99t-100 24h-92q-86 0 -109 -24t-22 -99v-127zM59 784v127q-1 135 57 195t208 61h92q145 0 202 -60t58 -196v-127q0 -135 -58 -195t-206 -61h-93q-145 0 -203 60t-57 196z" />
    <glyph glyph-name="ampersand.smcp" horiz-adv-x="1161" 
d="M229 280q26 -79 103 -122q39 -23 94 -20t100 50l142 140l-213 260l-150 -119q-57 -45 -73 -99t-3 -90zM852 1026h-385q-182 0 -57 -152l368 -444l170 152l49 -54l-79 -170l-48 -47l242 -311h-180l-172 213l-146 -143q-66 -60 -150 -78t-174 16q-88 34 -149 119
q-88 121 -71 241q16 120 135 216l149 123l-90 110q-70 90 -64 165q5 75 52 124t113 59q211 31 487 -30v-109z" />
    <glyph glyph-name="quotesingle.smcp" horiz-adv-x="499" 
d="M174 1305h152v-138l-21 -274h-108l-23 274v138z" />
    <glyph glyph-name="asterisk.smcp" horiz-adv-x="899" 
d="M514 848l244 153l41 -71l-187 -199zM426 651l84 129l225 -188l-43 -66zM360 1145l80 33l154 -242l-139 -62zM240 524l51 277l147 -35l-123 -266zM102 836v82l285 59l8 -152z" />
    <glyph glyph-name="zero.smcp" horiz-adv-x="1193" 
d="M295 332q0 -94 58 -137t143 -43h213q190 0 190 180v504q0 180 -190 180h-213q-201 0 -201 -180v-504zM143 332v504q1 164 99 248t254 83h213q91 1 157 -25t100 -62q85 -90 85 -244v-504q0 -332 -342 -332h-213q-154 0 -254 80t-99 252z" />
    <glyph glyph-name="one.smcp" horiz-adv-x="684" 
d="M520 1171v-1171h-151v999l-287 -110v108l287 174h151z" />
    <glyph glyph-name="two.smcp" horiz-adv-x="1046" 
d="M549 1169q395 0 395 -383q0 -96 -47 -190t-109 -161t-173 -148q-110 -81 -228 -135h547v-152h-840v139q48 39 150 99q231 138 355 237q183 146 183 316q0 117 -59 174t-197 53l-444 -2v104q66 8 180 28q115 20 287 21z" />
    <glyph glyph-name="three.smcp" horiz-adv-x="1046" 
d="M61 1022v106q156 53 560 46q125 -2 199 -90t73 -205v-70q0 -86 -29 -147t-76 -80q104 -66 105 -240v-53q0 -137 -71 -218t-212 -81h-131q-151 0 -196 5l-72 8q-87 10 -139 30v108h487q80 0 129 30t49 118v53q0 158 -168 162l-399 10v133l399 8q88 2 130 35t42 119v70
q0 143 -172 143h-508z" />
    <glyph glyph-name="four.smcp" horiz-adv-x="1112" 
d="M735 442v338l76 154h76v-492h184v-120l-184 -39v-279h-152v279h-624l-70 75l467 809h180l-412 -725h459z" />
    <glyph glyph-name="five.smcp" horiz-adv-x="1110" 
d="M156 160h510q98 0 135 40t37 115v121q0 111 -72 133q-39 12 -100 13h-211q-66 0 -110 -38t-44 -116h-143l35 739h743v-151h-594l-16 -354q59 70 131 69h209q324 0 323 -291v-129q0 -163 -90 -237t-233 -76q-322 -4 -510 49v113z" />
    <glyph glyph-name="six.smcp" horiz-adv-x="1124" 
d="M285 549q0 -399 176 -399h264q61 0 93 24t32 92v185q0 57 -30 77t-95 21h-440zM232 111q-99 130 -99 479t100 469q100 121 216 121q229 2 516 -31v-121h-516q-49 0 -84 -39q-80 -89 -80 -313q203 25 440 24q276 0 276 -249v-193q0 -133 -76 -197q-77 -63 -200 -63h-264
q-72 0 -126 25t-103 88z" />
    <glyph glyph-name="seven.smcp" horiz-adv-x="974" 
d="M61 1016v151h797l55 -98l-413 -1069h-170l395 1016h-664z" />
    <glyph glyph-name="eight.smcp" horiz-adv-x="1181" 
d="M305 791q0 -121 129 -121h320q55 0 85 19t35 43q6 24 7 59v92q0 85 -28 113t-101 28h-299q-49 0 -69 -2t-42 -14q-23 -12 -30 -42t-7 -83v-92zM305 262q0 -59 31 -84t117 -24h297q129 0 129 108v133q0 121 -125 121h-320q-61 0 -95 -27t-34 -94v-133zM154 266v144
q0 87 45 116t92 43q-70 25 -104 91t-33 139v88q0 159 68 225t210 66h340q258 0 258 -291v-88q0 -166 -119 -191q59 -10 89 -72t30 -126v-144q0 -142 -78 -204t-182 -62h-338q-210 0 -259 137q-19 54 -19 129z" />
    <glyph glyph-name="nine.smcp" horiz-adv-x="1124" 
d="M274 727q0 -57 30 -77t95 -21h441q0 399 -176 399h-265q-61 0 -93 -24t-32 -93v-184zM123 727v193q0 133 77 196t199 64h265q72 0 126 -26t102 -89q101 -133 100 -479q-1 -347 -101 -468q-100 -120 -215 -120q-319 -4 -516 31v121h516q124 0 158 252q6 52 6 100
q-203 -25 -441 -25q-276 0 -276 250z" />
    <glyph glyph-name="question.smcp" horiz-adv-x="944" 
d="M285 47v117q0 51 49 51h108q51 0 52 -51v-117q0 -47 -52 -47h-108q-49 0 -49 47zM41 1022v119q305 41 465 33q170 0 263 -92t93 -234v-92q0 -152 -118 -230t-277 -53v-131h-156v266q145 -4 216 0t127 41t57 107v92q0 174 -205 174h-465z" />
    <glyph glyph-name="at.smcp" horiz-adv-x="1728" 
d="M612 319q0 -35 38 -69t90 -32t124 22t105 35t114 55v252l-348 -33q-59 -6 -92 -44t-31 -93v-93zM133 86v713q0 154 76 239q33 37 103 67t165 30h441q129 0 221 -67t92 -220v-762h-115l-29 131l-20 -16q-190 -133 -344 -133q-113 -2 -189 66t-73 173v109q-1 124 69 198
t195 74h358q2 156 0 156q0 82 -41 110t-131 29h-434q-90 0 -141 -37t-51 -147v-713q0 -211 192 -211h715q121 0 166 50t45 161v1049q0 115 -57 174t-154 59h-827v96q276 57 589 56h238q168 -4 265 -102t97 -283v-1049q0 -365 -362 -365h-715q-160 1 -252 95t-92 270z" />
    <glyph glyph-name="a.smcp" horiz-adv-x="1210" 
d="M430 463h369l-176 487zM72 0l477 1167h151l439 -1167h-166l-123 311h-481l-131 -311h-166z" />
    <glyph glyph-name="b.smcp" horiz-adv-x="1118" 
d="M315 680h390q96 0 130 39t33 137q0 162 -163 162h-390v-338zM315 154h390q45 0 77 9t63 51q30 42 29 118q0 197 -169 196q-315 -4 -390 0v-374zM164 0v1169h541q184 0 253 -106q62 -92 62 -203q0 -110 -31 -170t-96 -94q55 -26 94 -92t39 -172q0 -332 -321 -332h-541z
" />
    <glyph glyph-name="c.smcp" horiz-adv-x="1064" 
d="M113 618q0 231 77 386q90 180 340 180q72 0 231 -16t232 -35v-121q-25 4 -195 12t-268 8q-147 0 -206 -108q-60 -108 -60 -345q0 -236 67 -334q67 -99 199 -102l463 21v-117q-291 -55 -430 -55t-218 38t-123 95t-69 143q-26 86 -33 163t-7 187z" />
    <glyph glyph-name="d.smcp" horiz-adv-x="1230" 
d="M315 152h355q297 0 297 428q0 224 -81 332t-216 108h-355v-868zM164 0v1171h506q343 -5 428 -392q20 -95 20 -207q0 -331 -139 -463q-45 -43 -81 -63q-80 -46 -228 -46h-506z" />
    <glyph glyph-name="e.smcp" horiz-adv-x="1056" 
d="M164 170v815q0 88 56 136t157 48l588 -24v-125h-584q-43 0 -54 -13t-12 -55v-290l586 -17v-125l-586 -14v-293q1 -41 19 -53t55 -13h576v-122l-629 -29q-78 0 -125 47t-47 127z" />
    <glyph glyph-name="f.smcp" horiz-adv-x="1056" 
d="M164 0v985q0 88 56 136t157 48l588 -24v-125h-584q-52 0 -60 -29q-3 -10 -6 -39v-297l586 -16v-125l-586 -14v-500h-151z" />
    <glyph glyph-name="g.smcp" horiz-adv-x="1183" 
d="M562 135q98 0 206 36t152 71v243h-365v101q186 51 379 51q63 0 137 -6v-631h-115l-30 90q-164 -104 -377 -104q-245 0 -350 203q-86 162 -86 432t93 417t343 148q69 0 237 -18t256 -33v-127q-274 27 -493 26q-160 0 -222 -91t-63 -353q0 -151 51 -285q65 -170 247 -170z
" />
    <glyph glyph-name="h.smcp" horiz-adv-x="1226" 
d="M164 -2v1169h151v-528h637v528h152v-1169h-152v489h-637v-489h-151z" />
    <glyph glyph-name="i.smcp" horiz-adv-x="438" 
d="M164 0v1167h151v-1167h-151z" />
    <glyph glyph-name="j.smcp" horiz-adv-x="681" 
d="M408 1167h151v-829q0 -227 -117 -299q-191 -103 -370 4l8 111q100 -16 172 -17q152 0 156 201v829z" />
    <glyph glyph-name="k.smcp" horiz-adv-x="1142" 
d="M164 -2v1169h151v-520h150l416 520h190l-473 -594l473 -575h-190l-420 498h-146v-498h-151z" />
    <glyph glyph-name="l.smcp" horiz-adv-x="1017" 
d="M164 176v991h151v-960q-1 -37 17 -46t61 -9h553v-152h-606q-82 0 -129 46t-47 130z" />
    <glyph glyph-name="m.smcp" horiz-adv-x="1503" 
d="M113 0l112 1169h187l344 -915l342 915h182l111 -1169h-148l-84 903l-336 -903h-131l-340 905l-96 -905h-143z" />
    <glyph glyph-name="n.smcp" horiz-adv-x="1234" 
d="M164 0v1169h145l654 -888v888h149v-1169h-143l-654 897v-897h-151z" />
    <glyph glyph-name="o.smcp" horiz-adv-x="1247" 
d="M264 595q0 -161 20 -251t69 -134q50 -44 122 -59t164 -11t138 12t70 24q76 50 99 129q37 124 37 241q0 116 -8 211t-31 134q-22 39 -36 63t-89 57q-39 15 -119 15h-90q-154 0 -211 -32t-74 -71t-39 -103t-22 -225zM610 1178q124 0 196 -12q175 -28 246 -144
q83 -138 83 -434q0 -368 -128 -488q-69 -63 -158 -87q-89 -23 -212 -23t-196 11q-172 26 -250 154t-78 456t129 452q68 67 156 91t212 24z" />
    <glyph glyph-name="p.smcp" horiz-adv-x="1081" 
d="M276 608h402q119 0 146 92q14 45 16 129q2 85 -48 135t-114 50h-402v-406zM123 0v1165h555q121 0 216 -84t95 -247q1 -102 -21 -176t-50 -112t-76 -60q-47 -22 -82 -26t-82 -3l-402 26v-483h-153z" />
    <glyph glyph-name="q.smcp" horiz-adv-x="1247" 
d="M680 -68q167 -117 344 -41v-163q-207 -58 -351 48q-84 60 -100 156h107zM264 595q0 -161 20 -251t69 -134q50 -44 122 -59t164 -11t138 12t70 24q76 50 99 129q37 124 37 241q0 116 -8 211t-31 134q-22 39 -36 63t-89 57q-39 15 -119 15h-90q-154 0 -211 -32t-74 -71
t-39 -103t-22 -225zM610 1178q124 0 196 -12q175 -28 246 -144q83 -138 83 -434q0 -368 -128 -488q-69 -63 -158 -87q-89 -23 -212 -23t-196 11q-172 26 -250 154t-78 456t129 452q68 67 156 91t212 24z" />
    <glyph glyph-name="r.smcp" 
d="M274 610h402q162 0 162 228q0 53 -17 91t-35 54q-18 15 -48 25t-39 10h-425v-408zM123 0v1169h553q108 0 202 -61q111 -73 111 -295q0 -123 -53 -224t-172 -112l278 -477h-172l-262 459q-328 23 -334 33v-492h-151z" />
    <glyph glyph-name="s.smcp" horiz-adv-x="1122" 
d="M113 766v121q0 287 282 287q81 0 269 -14t290 -27v-117q-358 8 -559 8q-131 0 -131 -137v-121q0 -91 40 -106q29 -11 91 -11h348q129 -1 198 -73t69 -191v-143q0 -262 -267 -262q-100 0 -317 14t-268 31v112q389 -6 585 -6q37 0 66 28t39 54l10 29v143q0 57 -25 85
q-26 28 -90 28h-348q-147 0 -215 61q-67 62 -67 207z" />
    <glyph glyph-name="t.smcp" horiz-adv-x="1056" 
d="M72 1016v151h913v-151h-381v-1016h-151v1016h-381z" />
    <glyph glyph-name="u.smcp" horiz-adv-x="1255" 
d="M164 532v635h153v-635q-2 -238 72 -314t253 -77q179 0 258 79t79 312v635h154v-635q0 -381 -205 -488q-66 -34 -128 -44t-144 -10q-259 0 -355 89t-122 244q-15 90 -15 209z" />
    <glyph glyph-name="v.smcp" horiz-adv-x="1220" 
d="M72 1167h166l378 -938l367 938h166l-457 -1167h-151z" />
    <glyph glyph-name="w.smcp" horiz-adv-x="1742" 
d="M72 1167h166l352 -944l334 944h163l-137 -397l226 -547l342 944h153l-422 -1167h-151l-226 565l-198 -565h-160z" />
    <glyph glyph-name="x.smcp" horiz-adv-x="1153" 
d="M72 0l409 586l-405 581h194l308 -444l309 444h196l-411 -581l405 -586h-188l-314 449l-315 -449h-188z" />
    <glyph glyph-name="y.smcp" horiz-adv-x="1159" 
d="M657 -2h-151v391l-434 778h166l346 -618l338 618h165l-430 -778v-391z" />
    <glyph glyph-name="z.smcp" horiz-adv-x="1015" 
d="M72 0v152l671 864h-671v151h872v-151l-663 -864h663v-152h-872z" />
    <glyph glyph-name="grave.smcp" horiz-adv-x="495" 
d="M41 1360h195l219 -273h-142z" />
    <glyph glyph-name="aogonek.smcp" horiz-adv-x="1236" 
d="M430 463h369l-176 487zM72 0l477 1167h151l439 -1167h-37q-84 -68 -111 -124t5 -89t112 -35v-123q-68 -10 -129 13q-61 22 -92 66q-74 104 3 201q44 54 132 91h-49l-123 311h-481l-131 -311h-166z" />
    <glyph glyph-name="rcommaaccent.smcp" 
d="M274 610h402q162 0 162 228q0 53 -17 91t-35 54q-18 15 -48 25t-39 10h-425v-408zM123 0v1169h553q108 0 202 -61q111 -73 111 -295q0 -123 -53 -224t-172 -112l278 -477h-172l-262 459q-328 23 -334 33v-492h-151zM463 -291v98q0 49 45 50h94q45 0 45 -50v-165
q0 -49 -18 -82t-44 -44q-60 -26 -96 -18l-18 2v60q57 -2 57 55v47h-20q-45 0 -45 47z" />
    <glyph glyph-name="itilde.smcp" horiz-adv-x="438" 
d="M164 0v1167h151v-1167h-151zM208 1329q-62 33 -111 33t-102 -30t-79 -42l-43 84q55 45 83 67q28 21 74 43t94 20t117 -37q69 -34 93 -33q45 -2 186 73l45 -86q-6 -4 -50 -40t-63 -48t-56 -27q-81 -34 -188 23z" />
    <glyph glyph-name="lcommaaccent.smcp" horiz-adv-x="1017" 
d="M164 176v991h151v-960q-1 -37 17 -46t61 -9h553v-152h-606q-82 0 -129 46t-47 130zM492 -291v98q0 49 47 50h94q43 0 43 -50v-165q0 -49 -18 -82t-43 -44q-61 -26 -95 -18l-18 2v60q57 -2 57 55v47h-20q-47 0 -47 47z" />
    <glyph glyph-name="dieresis.smcp" horiz-adv-x="933" 
d="M625 1190q0 43 30 74q31 30 74 30t73 -30t30 -74q0 -43 -30 -74t-73 -31t-74 31q-30 31 -30 74zM102 1190q0 43 31 74q31 30 74 30t73 -30t30 -74q0 -43 -30 -74t-73 -31t-74 31t-31 74z" />
    <glyph glyph-name="scaron.smcp" horiz-adv-x="1122" 
d="M113 766v121q0 287 282 287q81 0 269 -14t290 -27v-117q-358 8 -559 8q-131 0 -131 -137v-121q0 -91 40 -106q29 -11 91 -11h348q129 -1 198 -73t69 -191v-143q0 -262 -267 -262q-100 0 -317 14t-268 31v112q389 -6 585 -6q37 0 66 28t39 54l10 29v143q0 57 -25 85
q-26 28 -90 28h-348q-147 0 -215 61q-67 62 -67 207zM256 1563h147l164 -146l142 146h145l-213 -267h-145z" />
    <glyph glyph-name="emacron.smcp" horiz-adv-x="1056" 
d="M164 170v815q0 88 56 136t157 48l588 -24v-125h-584q-43 0 -54 -13t-12 -55v-290l586 -17v-125l-586 -14v-293q1 -41 19 -53t55 -13h576v-122l-629 -29q-78 0 -125 47t-47 127zM293 1294v129h598v-129h-598z" />
    <glyph glyph-name="gcommaaccent.smcp" horiz-adv-x="1183" 
d="M528 -291v98q0 49 47 50h95q43 0 43 -50v-165q1 -49 -17 -82t-44 -44q-61 -26 -95 -18l-18 2v60q57 -2 57 55v47h-21q-47 0 -47 47zM113 586q0 300 102 450t363 150q66 0 220 -18t244 -33v-125l-454 26q-119 0 -185 -34q-137 -71 -137 -412q0 -217 68 -330t241 -121
q240 -10 345 70v274h-396v103q186 51 410 51q63 0 137 -6v-631q-10 -2 -55 1t-60 -1l-30 70q-131 -84 -363 -84q-450 0 -450 600z" />
    <glyph glyph-name="tbar.smcp" horiz-adv-x="995" 
d="M41 1016v151h913v-151h-381v-295h199v-111h-199v-610h-151v610h-205v111h205v295h-381z" />
    <glyph glyph-name="zcaron.smcp" horiz-adv-x="1015" 
d="M72 0v152l671 864h-671v151h872v-151l-663 -864h663v-152h-872zM209 1556h147l164 -145l142 145h145l-213 -266h-145z" />
    <glyph glyph-name="macron.smcp" horiz-adv-x="802" 
d="M102 1085v129h598v-129h-598z" />
    <glyph glyph-name="degree.smcp" horiz-adv-x="618" 
d="M199 956q-1 -46 31 -78t79 -32t79 32t32 78t-32 79q-32 32 -79 32t-79 -32t-31 -79zM102 956q0 88 60 150t147 61q87 0 147 -61q60 -62 60 -150t-60 -149t-146 -61t-148 60q-60 62 -60 150z" />
    <glyph glyph-name="acute.smcp" horiz-adv-x="495" 
d="M41 1087l219 273h195l-273 -273h-141z" />
    <glyph glyph-name="caron.smcp" horiz-adv-x="802" 
d="M102 1415h123l168 -186l180 186h127l-239 -328h-146z" />
    <glyph glyph-name="eng.smcp" horiz-adv-x="1234" 
d="M164 0v1169h145l654 -888v888h149v-1296q-4 -139 -110 -223t-273 -84v127q82 0 159 51t77 135v127l-650 891v-897h-151z" />
    <glyph glyph-name="amacron.smcp" horiz-adv-x="1210" 
d="M430 463h369l-176 487zM72 0l477 1167h151l439 -1167h-166l-123 311h-481l-131 -311h-166zM326 1290v129h598v-129h-598z" />
    <glyph glyph-name="aacute.smcp" horiz-adv-x="1210" 
d="M430 463h369l-176 487zM72 0l477 1167h151l439 -1167h-166l-123 311h-481l-131 -311h-166zM553 1290l221 273h193l-271 -273h-143z" />
    <glyph glyph-name="acircumflex.smcp" horiz-adv-x="1210" 
d="M430 463h369l-176 487zM72 0l477 1167h151l439 -1167h-166l-123 311h-481l-131 -311h-166zM326 1290l239 266h146l213 -266h-146l-145 146l-160 -146h-147z" />
    <glyph glyph-name="atilde.smcp" horiz-adv-x="1210" 
d="M430 463h369l-176 487zM72 0l477 1167h151l439 -1167h-166l-123 311h-481l-131 -311h-166zM612 1329q-62 33 -111 33q-50 0 -101 -30q-52 -30 -78 -42l-43 84q55 45 83 67q28 21 73 43q46 22 94 20t117 -37q69 -34 93 -33q45 -2 187 73l45 -86q-6 -4 -50 -40
q-113 -92 -180 -89q-67 4 -129 37z" />
    <glyph glyph-name="adieresis.smcp" horiz-adv-x="1210" 
d="M430 463h369l-176 487zM72 0l477 1167h151l439 -1167h-166l-123 311h-481l-131 -311h-166zM782 1395q0 43 31 73t74 29q43 0 73 -30q30 -31 29 -73q0 -42 -30 -73q-31 -31 -73 -31t-73 31t-31 74zM260 1395q0 43 31 73t74 29q43 0 73 -30q30 -31 29 -73q0 -42 -30 -73
q-31 -31 -73 -31t-73 31t-31 74z" />
    <glyph glyph-name="aring.smcp" horiz-adv-x="1210" 
d="M430 463h369l-176 487zM420 1364q0 88 61 149t147 61t147 -60q61 -62 61 -150t-61 -149q-33 -33 -75 -48l439 -1167h-166l-123 311h-481l-131 -311h-166l477 1167h7q-41 15 -75 48q-61 61 -61 149zM516 1364q0 -45 33 -78t80 -33t79 33t32 79t-33 79t-79 33t-79 -34
t-33 -79z" />
    <glyph glyph-name="ae.smcp" horiz-adv-x="1591" 
d="M719 475v524l-262 -524h262zM1507 1018h-565q-57 0 -64 -28q-3 -11 -6 -38v-301l572 -14v-125l-572 -16v-285q0 -41 18 -52t60 -12l557 -2v-122l-600 -27q-90 -2 -139 44t-49 126v158h-336l-166 -324h-170l500 987q55 109 142 143t249 37l569 -24v-125z" />
    <glyph glyph-name="iogonek.smcp" horiz-adv-x="438" 
d="M164 0v1167h151v-1167h-24q-84 -68 -111 -124t5 -89t112 -35v-123q-68 -10 -129 13q-61 22 -92 66q-74 104 3 201q44 54 132 91h-47z" />
    <glyph glyph-name="ccaron.smcp" horiz-adv-x="1064" 
d="M113 618q0 231 77 386q90 180 340 180q72 0 231 -16t232 -35v-121q-25 4 -195 12t-268 8q-147 0 -206 -108q-60 -108 -60 -345q0 -236 67 -334q67 -99 199 -102l463 21v-117q-291 -55 -430 -55t-218 38t-123 95t-69 143q-26 86 -33 163t-7 187zM295 1583h147l164 -145
l142 145h145l-213 -266h-145z" />
    <glyph glyph-name="eacute.smcp" horiz-adv-x="1056" 
d="M164 170v815q0 88 56 136t157 48l588 -24v-125h-584q-43 0 -54 -13t-12 -55v-290l586 -17v-125l-586 -14v-293q1 -41 19 -53t55 -13h576v-122l-629 -29q-78 0 -125 47t-47 127zM516 1294l219 273h195l-273 -273h-141z" />
    <glyph glyph-name="eogonek.smcp" horiz-adv-x="1056" 
d="M164 170v815q0 88 56 136t157 48l588 -24v-125h-584q-43 0 -54 -13t-12 -55v-290l586 -17v-125l-586 -14v-293q1 -41 19 -53t55 -13h576v-122q-84 -68 -111 -124t5 -89t112 -35v-123q-68 -10 -129 12t-92 67q-74 105 3 200q42 51 122 88l-539 -25q-78 0 -125 47t-47 127z
" />
    <glyph glyph-name="edieresis.smcp" horiz-adv-x="1056" 
d="M164 170v815q0 88 56 136t157 48l588 -24v-125h-584q-43 0 -54 -13t-12 -55v-290l586 -17v-125l-586 -14v-293q1 -41 19 -53t55 -13h576v-122l-629 -29q-78 0 -125 47t-47 127zM748 1399q0 43 30 73t74 29q43 0 73 -30q29 -31 29 -73t-30 -73t-72 -31q-43 0 -74 31
q-30 31 -30 74zM225 1399q0 43 31 73t74 29q42 0 72 -30q30 -31 30 -73t-30 -73t-72 -31t-74 31q-31 31 -31 74z" />
    <glyph glyph-name="edotaccent.smcp" horiz-adv-x="1056" 
d="M164 170v815q0 88 56 136t157 48l588 -24v-125h-584q-43 0 -54 -13t-12 -55v-290l586 -17v-125l-586 -14v-293q1 -41 19 -53t55 -13h576v-122l-629 -29q-78 0 -125 47t-47 127zM506 1341v111q0 51 49 51h102q47 0 48 -51v-111q0 -47 -48 -47h-102q-49 0 -49 47z" />
    <glyph glyph-name="iacute.smcp" horiz-adv-x="438" 
d="M164 0v1167h151v-1167h-151zM188 1290l220 273h194l-272 -273h-142z" />
    <glyph glyph-name="icircumflex.smcp" horiz-adv-x="438" 
d="M164 0v1167h151v-1167h-151zM-41 1290l240 266h145l213 -266h-145l-146 146l-160 -146h-147z" />
    <glyph glyph-name="imacron.smcp" horiz-adv-x="438" 
d="M164 0v1167h151v-1167h-151zM-41 1290v129h598v-129h-598z" />
    <glyph glyph-name="dcroat.smcp" horiz-adv-x="1214" 
d="M338 154h287q115 0 185 60t92 148q24 88 24 218q0 432 -289 432h-299v-363h203v-110h-203v-385zM178 0v539h-137v110h137v522h126l362 -2q120 0 208 -55q150 -94 196 -322q45 -228 1 -426q-63 -297 -291 -353q-58 -13 -125 -13h-477z" />
    <glyph glyph-name="ncommaaccent.smcp" horiz-adv-x="1234" 
d="M164 0v1169h145l654 -888v888h149v-1169h-143l-654 897v-897h-151zM549 -291v98q0 49 47 50h94q43 0 43 -50v-165q0 -49 -17 -82t-43 -44q-61 -26 -95 -18l-19 2v60q57 -2 57 55v47h-20q-47 0 -47 47z" />
    <glyph glyph-name="omacron.smcp" horiz-adv-x="1247" 
d="M264 595q0 -161 20 -251t69 -134q50 -44 122 -59t164 -11t138 12t70 24q76 50 99 129q37 124 37 241q0 116 -8 211t-31 134q-22 39 -36 63t-89 57q-39 15 -119 15h-90q-154 0 -211 -32t-74 -71t-39 -103t-22 -225zM610 1178q124 0 196 -12q175 -28 246 -144
q83 -138 83 -434q0 -368 -128 -488q-69 -63 -158 -87q-89 -23 -212 -23t-196 11q-172 26 -250 154t-78 456t129 452q68 67 156 91t212 24zM328 1323v129h598v-129h-598z" />
    <glyph glyph-name="kcommaaccent.smcp" horiz-adv-x="1142" 
d="M164 -2v1169h151v-520h150l416 520h190l-473 -594l473 -575h-190l-420 498h-146v-498h-151zM492 -295v100q0 49 45 50h94q45 0 45 -50v-165q0 -49 -18 -82t-45 -44q-61 -26 -95 -18l-18 2v60q57 -2 57 57v45h-20q-45 0 -45 45z" />
    <glyph glyph-name="ocircumflex.smcp" horiz-adv-x="1247" 
d="M264 595q0 -161 20 -251t69 -134q50 -44 122 -59t164 -11t138 12t70 24q76 50 99 129q37 124 37 241q0 116 -8 211t-31 134q-22 39 -36 63t-89 57q-39 15 -119 15h-90q-154 0 -211 -32t-74 -71t-39 -103t-22 -225zM610 1178q124 0 196 -12q175 -28 246 -144
q83 -138 83 -434q0 -368 -128 -488q-69 -63 -158 -87q-89 -23 -212 -23t-196 11q-172 26 -250 154t-78 456t129 452q68 67 156 91t212 24zM317 1290l240 266h145l213 -266h-145l-145 146l-160 -146h-148z" />
    <glyph glyph-name="otilde.smcp" horiz-adv-x="1247" 
d="M264 595q0 -161 20 -251t69 -134q50 -44 122 -59t164 -11t138 12t70 24q76 50 99 129q37 124 37 241q0 116 -8 211t-31 134q-22 39 -36 63t-89 57q-39 15 -119 15h-90q-154 0 -211 -32t-74 -71t-39 -103t-22 -225zM610 1178q124 0 196 -12q175 -28 246 -144
q83 -138 83 -434q0 -368 -128 -488q-69 -63 -158 -87q-89 -23 -212 -23t-196 11q-172 26 -250 154t-78 456t129 452q68 67 156 91t212 24zM642 1340q-62 32 -112 32t-101 -30q-52 -30 -79 -42l-43 84q55 45 83 67q28 21 74 43t94 20t117 -36t93 -34q45 -2 186 74l45 -86
q-6 -4 -50 -40t-63 -48q-112 -74 -244 -4z" />
    <glyph glyph-name="odieresis.smcp" horiz-adv-x="1247" 
d="M264 595q0 -161 20 -251t69 -134q50 -44 122 -59t164 -11t138 12t70 24q76 50 99 129q37 124 37 241q0 116 -8 211t-31 134q-22 39 -36 63t-89 57q-39 15 -119 15h-90q-154 0 -211 -32t-74 -71t-39 -103t-22 -225zM610 1178q124 0 196 -12q175 -28 246 -144
q83 -138 83 -434q0 -368 -128 -488q-69 -63 -158 -87q-89 -23 -212 -23t-196 11q-172 26 -250 154t-78 456t129 452q68 67 156 91t212 24zM774 1405q0 43 31 73t74 30t73 -30t29 -73q0 -43 -30 -74q-31 -31 -73 -31t-73 31t-31 74zM252 1405q0 43 31 73t73 30t73 -30
q30 -30 30 -73t-30 -74t-73 -31q-44 0 -74 31t-30 74z" />
    <glyph glyph-name="oslash.smcp" horiz-adv-x="1216" 
d="M1020 1044q94 -127 94 -475t-124 -469q-68 -63 -154 -87t-224 -23q-246 0 -350 82q-37 -49 -53 -72h-119q96 131 107 143q-84 133 -84 430q1 185 29 305t95 186t153 90t222 24q240 0 336 -66l43 55h125q-48 -60 -96 -123zM612 1026h-12q-151 0 -189 -24q-19 -11 -49 -31
t-43 -53q-39 -91 -47 -171q-8 -81 -8 -163q0 -205 39 -301l551 704q-57 39 -242 39zM358 199q68 -57 246 -57t227 34q74 51 102 146q28 94 29 293q1 198 -47 298q-358 -454 -557 -714z" />
    <glyph glyph-name="uogonek.smcp" horiz-adv-x="1161" 
d="M164 532v635h153v-635q-2 -238 72 -314t253 -77q179 0 258 79t79 312v635h154v-635q0 -381 -205 -488q-66 -34 -121 -43t-115 -11q-78 -64 -104 -119t5 -88q32 -33 112 -35v-123q-67 -10 -129 13q-62 22 -93 66q-74 104 3 201q41 50 120 85q-214 4 -308 91t-119 242
q-15 90 -15 209z" />
    <glyph glyph-name="uacute.smcp" horiz-adv-x="1255" 
d="M164 532v635h153v-635q-2 -238 72 -314t253 -77q179 0 258 79t79 312v635h154v-635q0 -381 -205 -488q-66 -34 -128 -44t-144 -10q-259 0 -355 89t-122 244q-15 90 -15 209zM578 1290l219 273h194l-272 -273h-141z" />
    <glyph glyph-name="ucircumflex.smcp" horiz-adv-x="1255" 
d="M164 532v635h153v-635q-2 -238 72 -314t253 -77q179 0 258 79t79 312v635h154v-635q0 -381 -205 -488q-66 -34 -128 -44t-144 -10q-259 0 -355 89t-122 244q-15 90 -15 209zM344 1290l240 266h145l213 -266h-145l-146 146l-159 -146h-148z" />
    <glyph glyph-name="udieresis.smcp" horiz-adv-x="1255" 
d="M164 532v635h153v-635q-2 -238 72 -314t253 -77q179 0 258 79t79 312v635h154v-635q0 -381 -205 -488q-66 -34 -128 -44t-144 -10q-259 0 -355 89t-122 244q-15 90 -15 209zM799 1395q1 43 31 73t73 29q43 0 73 -30q30 -31 30 -73t-30 -73t-73 -31t-74 31q-30 31 -30 74z
M276 1395q0 43 31 73t74 29q43 0 73 -30q30 -31 30 -73t-30 -73t-73 -31t-74 31t-31 74z" />
    <glyph glyph-name="utilde.smcp" horiz-adv-x="1255" 
d="M164 532v635h153v-635q-2 -238 72 -314t253 -77q179 0 258 79t79 312v635h154v-635q0 -381 -205 -488q-66 -34 -128 -44t-144 -10q-259 0 -355 89t-122 244q-15 90 -15 209zM632 1329q-62 33 -111 33t-102 -30t-79 -42l-43 84q55 45 83 67q28 21 74 43t94 20t117 -37
q69 -34 93 -33q45 -2 186 73l45 -86q-6 -4 -50 -40t-63 -48t-56 -27q-81 -34 -188 23z" />
    <glyph glyph-name="umacron.smcp" horiz-adv-x="1255" 
d="M164 532v635h153v-635q-2 -238 72 -314t253 -77q179 0 258 79t79 312v635h154v-635q0 -381 -205 -488q-66 -34 -128 -44t-144 -10q-259 0 -355 89t-122 244q-15 90 -15 209zM344 1290v129h598v-129h-598z" />
    <glyph glyph-name="germandbls.smcp" horiz-adv-x="2084" 
d="M1118 903q0 133 66 202t217 69q233 0 538 -41v-117q-338 8 -538 8q-74 0 -103 -32t-28 -89v-137q0 -91 40 -106q29 -11 91 -11h328q129 -1 197 -73t69 -191v-143q0 -262 -266 -262q-99 0 -307 14t-259 31v112q369 -6 566 -6q115 0 114 111v143q0 57 -25 85q-26 28 -89 28
h-328q-147 0 -215 61t-68 207v137zM76 766v137q0 133 65 202q66 69 217 69q233 0 539 -41v-117l-539 8q-74 0 -102 -32t-29 -89v-137q0 -90 35 -104q35 -13 96 -13h328q129 -1 198 -73t68 -191v-143q0 -262 -266 -262q-98 0 -306 14t-259 31v112l565 -6q115 0 115 111v143
q0 57 -26 85t-89 28h-328q-147 0 -215 61q-67 62 -67 207z" />
    <glyph glyph-name="agrave.smcp" horiz-adv-x="1210" 
d="M430 463h369l-176 487zM72 0l477 1167h151l439 -1167h-166l-123 311h-481l-131 -311h-166zM250 1563h194l220 -273h-142z" />
    <glyph glyph-name="ccedilla.smcp" horiz-adv-x="1064" 
d="M113 618q0 231 77 386q90 180 340 180q72 0 231 -16t232 -35v-121q-25 4 -195 12t-268 8q-147 0 -206 -108q-60 -108 -60 -345q0 -236 67 -334q67 -99 199 -102l463 21v-117q-291 -55 -430 -55t-218 38t-123 95t-69 143q-26 86 -33 163t-7 187zM700 -78q0 -160 -43 -219
t-163 -59h-105v75l109 31q66 29 65 172h137z" />
    <glyph glyph-name="eth.smcp" horiz-adv-x="1214" 
d="M338 154h287q115 0 185 60t92 148q24 88 24 218q0 432 -289 432h-299v-363h203v-110h-203v-385zM178 0v539h-137v110h137v522h126l362 -2q120 0 208 -55q150 -94 196 -322q45 -228 1 -426q-63 -297 -291 -353q-58 -13 -125 -13h-477z" />
    <glyph glyph-name="egrave.smcp" horiz-adv-x="1056" 
d="M164 170v815q0 88 56 136t157 48l588 -24v-125h-584q-43 0 -54 -13t-12 -55v-290l586 -17v-125l-586 -14v-293q1 -41 19 -53t55 -13h576v-122l-629 -29q-78 0 -125 47t-47 127zM287 1567h194l219 -273h-141z" />
    <glyph glyph-name="ecircumflex.smcp" horiz-adv-x="1056" 
d="M164 170v815q0 88 56 136t157 48l588 -24v-125h-584q-43 0 -54 -13t-12 -55v-290l586 -17v-125l-586 -14v-293q1 -41 19 -53t55 -13h576v-122l-629 -29q-78 0 -125 47t-47 127zM299 1294l240 267h145l213 -267h-145l-146 146l-160 -146h-147z" />
    <glyph glyph-name="igrave.smcp" horiz-adv-x="438" 
d="M164 0v1167h151v-1167h-151zM-82 1563h195l219 -273h-142z" />
    <glyph glyph-name="idieresis.smcp" horiz-adv-x="438" 
d="M164 0v1167h151v-1167h-151zM416 1395q0 43 30 73t74 29q43 0 73 -30q30 -31 30 -73t-30 -73t-73 -31t-74 31q-30 31 -30 74zM-106 1395q0 43 30 73t74 29q43 0 73 -30q29 -31 29 -73t-30 -73t-72 -31q-43 0 -74 31q-30 31 -30 74z" />
    <glyph glyph-name="ntilde.smcp" horiz-adv-x="1234" 
d="M164 0v1169h145l654 -888v888h149v-1169h-143l-654 897v-897h-151zM604 1331q-62 33 -111 33q-50 0 -101 -30q-52 -30 -79 -42l-43 84q55 45 83 67q28 21 74 43t94 20t117 -37q69 -34 93 -33q45 -2 187 73l45 -86q-7 -4 -51 -40t-63 -48t-55 -27q-36 -14 -82 -12t-108 35
z" />
    <glyph glyph-name="ograve.smcp" horiz-adv-x="1247" 
d="M264 595q0 -161 20 -251t69 -134q50 -44 122 -59t164 -11t138 12t70 24q76 50 99 129q37 124 37 241q0 116 -8 211t-31 134q-22 39 -36 63t-89 57q-39 15 -119 15h-90q-154 0 -211 -32t-74 -71t-39 -103t-22 -225zM610 1178q124 0 196 -12q175 -28 246 -144
q83 -138 83 -434q0 -368 -128 -488q-69 -63 -158 -87q-89 -23 -212 -23t-196 11q-172 26 -250 154t-78 456t129 452q68 67 156 91t212 24zM311 1573h195l219 -273h-141z" />
    <glyph glyph-name="oacute.smcp" horiz-adv-x="1247" 
d="M264 595q0 -161 20 -251t69 -134q50 -44 122 -59t164 -11t138 12t70 24q76 50 99 129q37 124 37 241q0 116 -8 211t-31 134q-22 39 -36 63t-89 57q-39 15 -119 15h-90q-154 0 -211 -32t-74 -71t-39 -103t-22 -225zM610 1178q124 0 196 -12q175 -28 246 -144
q83 -138 83 -434q0 -368 -128 -488q-69 -63 -158 -87q-89 -23 -212 -23t-196 11q-172 26 -250 154t-78 456t129 452q68 67 156 91t212 24zM582 1300l219 273h194l-272 -273h-141z" />
    <glyph glyph-name="ugrave.smcp" horiz-adv-x="1255" 
d="M164 532v635h153v-635q-2 -238 72 -314t253 -77q179 0 258 79t79 312v635h154v-635q0 -381 -205 -488q-66 -34 -128 -44t-144 -10q-259 0 -355 89t-122 244q-15 90 -15 209zM326 1563h194l219 -273h-141z" />
    <glyph glyph-name="yacute.smcp" horiz-adv-x="1159" 
d="M657 -2h-151v391l-434 778h166l346 -618l338 618h165l-430 -778v-391zM479 1290l219 273h195l-272 -273h-142z" />
    <glyph glyph-name="thorn.smcp" horiz-adv-x="1099" 
d="M303 383h363q80 0 114 46q34 47 33 163q0 116 -39 160t-108 51h-363v-420zM154 0v1165h149v-211h363q94 0 184 -60q51 -34 83 -108t32 -177q0 -279 -140 -351q-65 -35 -159 -35q-244 0 -363 33v-256h-149z" />
    <glyph glyph-name="quotesinglbase.smcp" horiz-adv-x="552" 
d="M162 59v136q0 68 61 67h129q59 0 60 -67v-224q0 -65 -25 -109t-59 -61q-68 -31 -129 -26l-25 4v78q78 -2 78 77v64h-29q-61 0 -61 61z" />
    <glyph glyph-name="quotedblleft.smcp" horiz-adv-x="892" 
d="M147 995q-1 165 143 191q26 4 46 4t47 -4v-78q-76 2 -76 -78v-61h27q63 0 63 -62v-135q0 -68 -63 -67h-127q-60 -1 -60 67v223zM496 772v223q0 66 24 111q25 45 60 60q73 31 131 22l24 -2v-78q-80 2 -80 -78v-61h31q59 0 59 -62v-135q0 -68 -59 -67h-129q-61 -1 -61 67z
" />
    <glyph glyph-name="quotedblright.smcp" horiz-adv-x="892" 
d="M496 987v135q0 68 63 68h127q59 0 59 -68v-223q-1 -66 -25 -111t-58 -60q-73 -32 -127 -23l-25 2v77q76 -2 76 78v64h-27q-63 0 -63 61zM147 987v135q0 68 60 68h129q61 0 61 -68v-223q-1 -66 -25 -111t-59 -60q-75 -32 -131 -23l-24 2v77q80 -2 80 78v64h-31
q-60 0 -60 61z" />
    <glyph glyph-name="quotedblbase.smcp" horiz-adv-x="892" 
d="M496 59v136q0 68 63 67h127q59 0 59 -67v-224q-1 -65 -25 -109t-58 -61q-68 -31 -127 -26l-25 4v78q76 -2 76 77v64h-27q-63 0 -63 61zM147 59v136q0 68 60 67h129q61 0 61 -67v-224q0 -166 -154 -192q-36 -6 -61 -4l-24 4v78q80 -2 80 77v64h-31q-60 0 -60 61z" />
    <glyph glyph-name="exclamdown.smcp" horiz-adv-x="550" 
d="M182 0l15 825h153l15 -825h-183zM168 1004v116q0 47 47 47h113q49 0 49 -47v-116q0 -51 -49 -52h-113q-47 1 -47 52z" />
    <glyph glyph-name="ordmasculine.smcp" horiz-adv-x="862" 
d="M219 816q0 -89 13 -138q14 -49 48 -71q34 -23 64 -27t90 -4q61 0 90 4t61 26t43 70q11 49 13 138t-9 142t-44 77t-63 29q-29 5 -95 5t-94 -4t-62 -28q-33 -24 -44 -77t-11 -142zM115 268v119h628v-119h-628zM92 820q0 210 73 292t267 82t266 -82q70 -82 70 -292t-72 -291
t-264 -81t-266 82q-74 80 -74 290z" />
    <glyph glyph-name="ordfeminine.smcp" horiz-adv-x="845" 
d="M367 760h196l-90 293zM131 465l260 702h160l231 -702h-120l-60 186h-278l-64 -186h-129zM123 272v119h663v-119h-663z" />
    <glyph glyph-name="Euro.smcp" horiz-adv-x="1054" 
d="M567 1182q154 0 412 -47v-127q-281 22 -381 22t-146 -18q-48 -18 -73 -42q-53 -51 -53 -218l379 -13v-94l-379 -10v-121l379 -10v-96q-79 0 -230 -6t-149 -7q0 -248 241 -248q170 0 351 21l67 6v-127q-201 -57 -418 -57q-91 0 -166 33t-120 73t-77 119q-32 78 -32 180
l-139 13v96l139 10v121l-139 12v90l139 15q0 430 395 430z" />
    <glyph glyph-name="lcaron.smcp" horiz-adv-x="1017" 
d="M463 1251h151v-137l-20 -274h-109l-22 274v137zM164 176v991h151v-960q-1 -37 17 -46t61 -9h553v-152h-606q-82 0 -129 46t-47 130z" />
    <glyph glyph-name="sacute.smcp" horiz-adv-x="1122" 
d="M113 766v121q0 287 282 287q81 0 269 -14t290 -27v-117q-358 8 -559 8q-131 0 -131 -137v-121q0 -91 40 -106q29 -11 91 -11h348q129 -1 198 -73t69 -191v-143q0 -262 -267 -262q-100 0 -317 14t-268 31v112q389 -6 585 -6q37 0 66 28t39 54l10 29v143q0 57 -25 85
q-26 28 -90 28h-348q-147 0 -215 61q-67 62 -67 207zM463 1309l219 272h195l-273 -272h-141z" />
    <glyph glyph-name="scedilla.smcp" horiz-adv-x="1122" 
d="M113 766v121q0 287 282 287q81 0 269 -14t290 -27v-117q-358 8 -559 8q-131 0 -131 -137v-121q0 -91 40 -106q29 -11 91 -11h348q129 -1 198 -73t69 -191v-143q0 -262 -267 -262q-100 0 -317 14t-268 31v112q389 -6 585 -6q37 0 66 28t39 54l10 29v143q0 57 -25 85
q-26 28 -90 28h-348q-147 0 -215 61q-67 62 -67 207zM469 -82h137q0 -160 -43 -219t-164 -59h-104v75l108 31q66 29 66 172z" />
    <glyph glyph-name="tcaron.smcp" horiz-adv-x="1241" 
d="M238 1016v151h913v-151h-381v-1016h-152v1016h-380zM391 1583h148l163 -145l142 145h145l-213 -266h-145z" />
    <glyph glyph-name="zacute.smcp" horiz-adv-x="1015" 
d="M72 0v152l671 864h-671v151h872v-151l-663 -864h663v-152h-872zM442 1290l220 273h194l-272 -273h-142z" />
    <glyph glyph-name="zdotaccent.smcp" horiz-adv-x="1015" 
d="M72 0v152l671 864h-671v151h872v-151l-663 -864h663v-152h-872zM410 1337v111q0 51 49 51h102q21 0 33 -14t12 -37v-111q0 -47 -45 -47h-102q-23 0 -36 14t-13 33z" />
    <glyph glyph-name="racute.smcp" 
d="M274 610h402q162 0 162 228q0 53 -17 91t-35 54q-18 15 -48 25t-39 10h-425v-408zM123 0v1169h553q108 0 202 -61q111 -73 111 -295q0 -123 -53 -224t-172 -112l278 -477h-172l-262 459q-328 23 -334 33v-492h-151zM463 1292l219 273h195l-273 -273h-141z" />
    <glyph glyph-name="abreve.smcp" horiz-adv-x="1210" 
d="M430 463h369l-176 487zM72 0l477 1167h151l439 -1167h-166l-123 311h-481l-131 -311h-166zM389 1524h96q0 -58 42 -98q43 -40 99 -40t97 37t41 101h96q0 -109 -73 -171q-73 -63 -163 -63t-163 65q-72 65 -72 169z" />
    <glyph glyph-name="lacute.smcp" horiz-adv-x="1017" 
d="M164 176v991h151v-960q-1 -37 17 -46t61 -9h553v-152h-606q-82 0 -129 46t-47 130zM188 1290l220 273h194l-272 -273h-142z" />
    <glyph glyph-name="cacute.smcp" horiz-adv-x="1064" 
d="M113 618q0 231 77 386q90 180 340 180q72 0 231 -16t232 -35v-121q-25 4 -195 12t-268 8q-147 0 -206 -108q-60 -108 -60 -345q0 -236 67 -334q67 -99 199 -102l463 21v-117q-291 -55 -430 -55t-218 38t-123 95t-69 143q-26 86 -33 163t-7 187zM508 1317l219 272h195
l-273 -272h-141z" />
    <glyph glyph-name="ecaron.smcp" horiz-adv-x="1056" 
d="M164 170v815q0 88 56 136t157 48l588 -24v-125h-584q-43 0 -54 -13t-12 -55v-290l586 -17v-125l-586 -14v-293q1 -41 19 -53t55 -13h576v-122l-629 -29q-78 0 -125 47t-47 127zM274 1559h148l164 -146l141 146h145l-213 -267h-145z" />
    <glyph glyph-name="dcaron.smcp" horiz-adv-x="1234" 
d="M434 152h354q297 0 297 428q-1 224 -81 332t-216 108h-354v-868zM283 0v1171h505q344 -5 429 -392q20 -95 20 -207q0 -402 -220 -526q-80 -45 -229 -46h-505zM412 1561h147l164 -146l141 146h146l-213 -267h-146z" />
    <glyph glyph-name="nacute.smcp" horiz-adv-x="1234" 
d="M164 0v1169h145l654 -888v888h149v-1169h-143l-654 897v-897h-151zM602 1292l219 273h195l-273 -273h-141z" />
    <glyph glyph-name="ncaron.smcp" horiz-adv-x="1234" 
d="M164 0v1169h145l654 -888v888h149v-1169h-143l-654 897v-897h-151zM346 1559h148l163 -146l142 146h145l-213 -267h-145z" />
    <glyph glyph-name="ohungarumlaut.smcp" horiz-adv-x="1247" 
d="M264 595q0 -161 20 -251t69 -134q50 -44 122 -59t164 -11t138 12t70 24q76 50 99 129q37 124 37 241q0 116 -8 211t-31 134q-22 39 -36 63t-89 57q-39 15 -119 15h-90q-154 0 -211 -32t-74 -71t-39 -103t-22 -225zM610 1178q124 0 196 -12q175 -28 246 -144
q83 -138 83 -434q0 -368 -128 -488q-69 -63 -158 -87q-89 -23 -212 -23t-196 11q-172 26 -250 154t-78 456t129 452q68 67 156 91t212 24zM692 1300l219 273h195l-272 -273h-142zM416 1300l219 273h194l-272 -273h-141z" />
    <glyph glyph-name="rcaron.smcp" 
d="M274 610h402q162 0 162 228q0 53 -17 91t-35 54q-18 15 -48 25t-39 10h-425v-408zM123 0v1169h553q108 0 202 -61q111 -73 111 -295q0 -123 -53 -224t-172 -112l278 -477h-172l-262 459q-328 23 -334 33v-492h-151zM225 1559h148l164 -146l141 146h145l-213 -267h-145z
" />
    <glyph glyph-name="uring.smcp" horiz-adv-x="1255" 
d="M164 532v635h153v-635q-2 -238 72 -314t253 -77q179 0 258 79t79 312v635h154v-635q0 -381 -205 -488q-66 -34 -128 -44t-144 -10q-259 0 -355 89t-122 244q-15 90 -15 209zM537 1438q1 -45 33 -78t79 -33t79 33t32 79t-33 79q-33 32 -79 32t-79 -33q-32 -34 -32 -79z
M440 1438q0 88 62 149t147 61q87 0 147 -60q60 -62 60 -150t-60 -148t-146 -61q-86 1 -148 61t-62 148z" />
    <glyph glyph-name="uhungarumlaut.smcp" horiz-adv-x="1255" 
d="M164 532v635h153v-635q-2 -238 72 -314t253 -77q179 0 258 79t79 312v635h154v-635q0 -381 -205 -488q-66 -34 -128 -44t-144 -10q-259 0 -355 89t-122 244q-15 90 -15 209zM707 1290l219 273h194l-272 -273h-141zM430 1290l219 273h195l-273 -273h-141z" />
    <glyph glyph-name="tcommaaccent.smcp" horiz-adv-x="1056" 
d="M72 1016v151h913v-151h-381v-1016h-151v1016h-381zM428 -96h137q0 -160 -43 -219t-164 -60h-104v76l108 31q66 29 66 172z" />
    <glyph glyph-name="lslash.smcp" horiz-adv-x="999" 
d="M176 1167h152v-456l241 98v-133l-241 -98v-371q-2 -37 16 -46t62 -9h552v-152h-606q-82 0 -129 46t-47 130v340l-135 -55v135l135 55v516z" />
    <glyph glyph-name="questiondown.smcp" horiz-adv-x="1007" 
d="M483 1004v116q0 47 52 47h108q49 0 49 -47v-116q0 -51 -49 -52h-108q-52 1 -52 52zM115 317v95q-1 152 117 230t278 52v131h156v-266q-145 4 -216 0t-127 -41t-57 -106v-95q0 -174 205 -174h465v-118q-305 -41 -465 -33q-170 0 -263 91t-93 234z" />
    <glyph glyph-name="oe.smcp" horiz-adv-x="1828" 
d="M233 595q-1 -161 19 -251t70 -134t109 -56q58 -12 158 -13t152 9q51 10 75 26q76 50 99 129q37 124 37 241q0 116 -8 211t-31 134q-22 39 -36 64t-63 45q-62 26 -198 26h-36q-155 0 -212 -32t-74 -71t-39 -103t-22 -225zM166 147q-84 136 -84 463q0 328 129 453
q68 67 157 91t227 24t228 -23t148 -84q47 98 194 98l588 -24v-125h-584q-43 0 -54 -13t-11 -55v-290l586 -17v-125l-586 -14v-293q0 -41 18 -53t56 -13h575v-122l-629 -29q-121 0 -159 102q-100 -109 -373 -108q-110 0 -182 11t-139 47t-105 99z" />
    <glyph glyph-name="ydieresis.smcp" horiz-adv-x="1159" 
d="M657 -2h-151v391l-434 778h166l346 -618l338 618h165l-430 -778v-391zM737 1395q0 43 31 73t74 29q42 0 72 -30q30 -31 30 -73t-30 -73t-72 -31t-74 31q-31 31 -31 74zM215 1395q0 43 31 73q32 30 74 29q42 0 72 -30q30 -31 30 -73t-30 -73t-73 -31t-73 31t-31 74z" />
    <glyph glyph-name="sterling.smcp" horiz-adv-x="1056" 
d="M102 0v98l115 41v375h-115v84l117 33v170q0 369 402 368l335 -26v-121h-333q-147 0 -201 -52t-53 -173v-158l460 -31v-98h-460v-360h585v-150h-852z" />
    <glyph glyph-name="yen.smcp" horiz-adv-x="1060" 
d="M926 528v-118h-320v-64h320v-119h-320v-227h-151v227h-303v119h303v64h-303v118h276l-387 641h174l315 -518l314 518h176l-391 -641h297z" />
    <glyph glyph-name="perthousand.smcp" horiz-adv-x="2430" 
d="M1866 254q0 -74 26 -98t101 -25h92q87 0 109 25t22 98v127q0 75 -27 99t-100 24h-92q-84 0 -108 -25t-23 -98v-127zM1733 254v127q0 135 57 195t207 61h92q145 0 203 -60t57 -196v-127q0 -136 -57 -196t-207 -60h-92q-145 0 -203 60q-57 61 -57 196zM1126 254
q0 -74 27 -98t100 -25h93q84 0 108 25t23 98v127q0 75 -27 99t-100 24h-93q-87 0 -109 -25t-22 -98v-127zM993 254v127q-1 135 57 195t207 61h93q145 0 202 -60t58 -196v-127q0 -136 -58 -196t-206 -60h-93q-145 0 -203 60t-57 196zM406 0l708 1167h146l-709 -1167h-145z
M193 784q1 -74 27 -98t99 -24h93q84 0 108 24t23 98v127q0 74 -27 99t-100 24h-92q-86 0 -109 -24t-22 -99v-127zM59 784v127q-1 135 57 195t208 61h92q145 0 202 -60t58 -196v-127q0 -135 -58 -195t-206 -61h-93q-145 0 -203 60t-57 196z" />
    <glyph glyph-name="circumflex.smcp" horiz-adv-x="802" 
d="M102 1087l240 267h145l213 -267h-145l-145 146l-160 -146h-148z" />
    <glyph glyph-name="tilde.smcp" horiz-adv-x="897" 
d="M436 1126q-62 32 -111 33q-50 -1 -101 -31q-52 -30 -79 -41l-43 84q55 45 83 67t74 44t94 19q48 -2 117 -36t93 -34q45 -2 187 74l45 -86q-7 -4 -51 -40t-63 -49q-69 -43 -126 -40q-57 4 -119 36z" />
    <glyph glyph-name="ring.smcp" horiz-adv-x="618" 
d="M199 1294q-1 -46 31 -78t79 -32t79 33t32 77t-32 78q-32 33 -79 33t-79 -33t-31 -78zM102 1294q0 88 60 150t147 61q87 0 147 -61q60 -62 60 -150t-60 -149t-146 -61t-148 60q-60 62 -60 150z" />
    <glyph glyph-name="hbar.smcp" horiz-adv-x="1226" 
d="M315 641h637v176h-637v-176zM66 817v105h98v245h151v-245h637v245h152v-245h94v-105h-94v-819h-152v491h-637v-491h-151v819h-98z" />
    <glyph glyph-name="hcircumflex.smcp" horiz-adv-x="1226" 
d="M164 -2v1169h151v-528h637v528h152v-1169h-152v489h-637v-489h-151zM324 1290l239 266h146l213 -266h-146l-145 146l-160 -146h-147z" />
    <glyph glyph-name="gbreve.smcp" horiz-adv-x="1183" 
d="M562 135q98 0 206 36t152 71v243h-365v101q186 51 379 51q63 0 137 -6v-631h-115l-30 90q-164 -104 -377 -104q-245 0 -350 203q-86 162 -86 432t93 417t343 148q69 0 237 -18t256 -33v-127q-274 27 -493 26q-160 0 -222 -91t-63 -353q0 -151 51 -285q65 -170 247 -170z
M420 1542h96q0 -57 42 -97t98 -40t98 37q41 37 41 100h96q0 -109 -73 -171t-164 -62q-90 1 -162 65t-72 168z" />
    <glyph glyph-name="jcircumflex.smcp" horiz-adv-x="681" 
d="M408 1167h151v-829q0 -227 -117 -299q-191 -103 -370 4l8 111q100 -16 172 -17q152 0 156 201v829zM154 1290l239 266h146l213 -266h-146l-145 146l-160 -146h-147z" />
    <glyph glyph-name="cdotaccent.smcp" horiz-adv-x="1064" 
d="M113 618q0 231 77 386q90 180 340 180q72 0 231 -16t232 -35v-121q-25 4 -195 12t-268 8q-147 0 -206 -108q-60 -108 -60 -345q0 -236 67 -334q67 -99 199 -102l463 21v-117q-291 -55 -430 -55t-218 38t-123 95t-69 143q-26 86 -33 163t-7 187zM532 1364v111q0 51 50 51
h102q47 0 47 -51v-111q0 -47 -47 -47h-102q-50 0 -50 47z" />
    <glyph glyph-name="ccircumflex.smcp" horiz-adv-x="1064" 
d="M113 618q0 231 77 386q90 180 340 180q72 0 231 -16t232 -35v-121q-25 4 -195 12t-268 8q-147 0 -206 -108q-60 -108 -60 -345q0 -236 67 -334q67 -99 199 -102l463 21v-117q-291 -55 -430 -55t-218 38t-123 95t-69 143q-26 86 -33 163t-7 187zM334 1317l239 266h146
l213 -266h-146l-145 145l-160 -145h-147z" />
    <glyph glyph-name="gdotaccent.smcp" horiz-adv-x="1183" 
d="M562 135q98 0 206 36t152 71v243h-365v101q186 51 379 51q63 0 137 -6v-631h-115l-30 90q-164 -104 -377 -104q-245 0 -350 203q-86 162 -86 432t93 417t343 148q69 0 237 -18t256 -33v-127q-274 27 -493 26q-160 0 -222 -91t-63 -353q0 -151 51 -285q65 -170 247 -170z
M555 1356v110q0 51 49 52h103q47 0 47 -52v-110q0 -47 -47 -47h-103q-49 0 -49 47z" />
    <glyph glyph-name="gcircumflex.smcp" horiz-adv-x="1183" 
d="M562 135q98 0 206 36t152 71v243h-365v101q186 51 379 51q63 0 137 -6v-631h-115l-30 90q-164 -104 -377 -104q-245 0 -350 203q-86 162 -86 432t93 417t343 148q69 0 237 -18t256 -33v-127q-274 27 -493 26q-160 0 -222 -91t-63 -353q0 -151 51 -285q65 -170 247 -170z
M354 1307l240 266h145l213 -266h-145l-145 145l-160 -145h-148z" />
    <glyph glyph-name="ubreve.smcp" horiz-adv-x="1255" 
d="M164 532v635h153v-635q-2 -238 72 -314t253 -77q179 0 258 79t79 312v635h154v-635q0 -381 -205 -488q-66 -34 -128 -44t-144 -10q-259 0 -355 89t-122 244q-15 90 -15 209zM414 1524h96q0 -58 42 -98t98 -40t98 37q41 37 40 101h97q0 -109 -73 -171q-73 -63 -164 -63
t-163 65q-71 65 -71 169z" />
    <glyph glyph-name="scircumflex.smcp" horiz-adv-x="1122" 
d="M113 766v121q0 287 282 287q81 0 269 -14t290 -27v-117q-358 8 -559 8q-131 0 -131 -137v-121q0 -91 40 -106q29 -11 91 -11h348q129 -1 198 -73t69 -191v-143q0 -262 -267 -262q-100 0 -317 14t-268 31v112q389 -6 585 -6q37 0 66 28t39 54l10 29v143q0 57 -25 85
q-26 28 -90 28h-348q-147 0 -215 61q-67 62 -67 207zM225 1309l240 266h145l213 -266h-145l-146 145l-159 -145h-148z" />
    <glyph glyph-name="Idotaccent.smcp" horiz-adv-x="409" 
d="M104 1356v110q0 51 50 52h102q47 0 47 -52v-110q0 -47 -47 -47h-102q-50 0 -50 47zM123 0v1167h151v-1167h-151z" />
    <glyph glyph-name="periodcentered.smcp" horiz-adv-x="557" 
d="M182 543v116q0 51 49 52h109q51 0 51 -52v-116q0 -47 -51 -47h-109q-49 0 -49 47z" />
    <glyph glyph-name="bullet.smcp" horiz-adv-x="638" 
d="M174 582v163q0 72 68 72h151q72 0 72 -72v-163q0 -66 -72 -66h-151q-68 0 -68 66z" />
    <glyph glyph-name="quoteleft.smcp" horiz-adv-x="575" 
d="M162 772v223q0 66 24 111q25 45 60 60q73 31 131 22l24 -2v-78q-80 2 -79 -78v-63h30q59 0 60 -60v-135q0 -68 -60 -67h-129q-61 -1 -61 67z" />
    <glyph glyph-name="quoteright.smcp" horiz-adv-x="575" 
d="M162 987v135q0 68 61 68h129q59 0 60 -68v-223q0 -66 -25 -111t-59 -60q-74 -32 -129 -23l-25 2v77q78 -2 78 78v64h-29q-61 0 -61 61z" />
    <glyph glyph-name="uni1E03.smcp" horiz-adv-x="1118" 
d="M315 680h390q96 0 130 39t33 137q0 162 -163 162h-390v-338zM315 154h390q45 0 77 9t63 51q30 42 29 118q0 197 -169 196q-315 -4 -390 0v-374zM164 0v1169h541q184 0 253 -106q62 -92 62 -203q0 -110 -31 -170t-96 -94q55 -26 94 -92t39 -172q0 -332 -321 -332h-541z
M463 1339v111q0 51 49 51h102q47 0 48 -51v-111q0 -47 -48 -47h-102q-49 0 -49 47z" />
    <glyph glyph-name="uni1E0B.smcp" horiz-adv-x="1230" 
d="M315 152h355q297 0 297 428q0 224 -81 332t-216 108h-355v-868zM164 0v1171h506q343 -5 428 -392q20 -95 20 -207q0 -331 -139 -463q-45 -43 -81 -63q-80 -46 -228 -46h-506zM459 1341v111q0 51 49 51h102q47 0 47 -51v-111q0 -47 -47 -47h-102q-49 0 -49 47z" />
    <glyph glyph-name="uni1E1F.smcp" horiz-adv-x="1056" 
d="M164 0v985q0 88 56 136t157 48l588 -24v-125h-584q-52 0 -60 -29q-3 -10 -6 -39v-297l586 -16v-125l-586 -14v-500h-151zM477 1341v111q0 51 49 51h103q47 0 47 -51v-111q0 -47 -47 -47h-103q-49 0 -49 47z" />
    <glyph glyph-name="uni1E41.smcp" horiz-adv-x="1503" 
d="M113 0l112 1169h187l344 -915l342 915h182l111 -1169h-148l-84 903l-336 -903h-131l-340 905l-96 -905h-143zM684 1339v111q0 51 49 51h103q47 0 47 -51v-111q0 -47 -47 -47h-103q-49 0 -49 47z" />
    <glyph glyph-name="wgrave.smcp" horiz-adv-x="1742" 
d="M72 1167h166l352 -944l334 944h163l-137 -397l226 -547l342 944h153l-422 -1167h-151l-226 565l-198 -565h-160zM541 1565h194l219 -273h-141z" />
    <glyph glyph-name="uni1E57.smcp" horiz-adv-x="1081" 
d="M276 608h402q119 0 146 92q14 45 16 129q2 85 -48 135t-114 50h-402v-406zM123 0v1165h555q121 0 216 -84t95 -247q1 -102 -21 -176t-50 -112t-76 -60q-47 -22 -82 -26t-82 -3l-402 26v-483h-153zM455 1335v111q0 51 49 51h102q47 0 47 -51v-111q0 -47 -47 -47h-102
q-49 0 -49 47z" />
    <glyph glyph-name="wacute.smcp" horiz-adv-x="1742" 
d="M72 1167h166l352 -944l334 944h163l-137 -397l226 -547l342 944h153l-422 -1167h-151l-226 565l-198 -565h-160zM813 1292l219 273h195l-273 -273h-141z" />
    <glyph glyph-name="ygrave.smcp" horiz-adv-x="1159" 
d="M657 -2h-151v391l-434 778h166l346 -618l338 618h165l-430 -778v-391zM248 1563h194l220 -273h-142z" />
    <glyph glyph-name="wdieresis.smcp" horiz-adv-x="1742" 
d="M72 1167h166l352 -944l334 944h163l-137 -397l226 -547l342 944h153l-422 -1167h-151l-226 565l-198 -565h-160zM1040 1397q0 43 31 73t74 29q43 0 73 -30q30 -31 30 -73t-30 -73t-73 -31t-74 31t-31 74zM518 1397q0 43 31 73t74 29q43 0 73 -30q30 -31 29 -73
q0 -42 -30 -73q-31 -31 -73 -31t-73 31t-31 74z" />
    <glyph glyph-name="uni1E61.smcp" horiz-adv-x="1122" 
d="M113 766v121q0 287 282 287q81 0 269 -14t290 -27v-117q-358 8 -559 8q-131 0 -131 -137v-121q0 -91 40 -106q29 -11 91 -11h348q129 -1 198 -73t69 -191v-143q0 -262 -267 -262q-100 0 -317 14t-268 31v112q389 -6 585 -6q37 0 66 28t39 54l10 29v143q0 57 -25 85
q-26 28 -90 28h-348q-147 0 -215 61q-67 62 -67 207zM442 1343v111q0 51 50 51h102q47 0 47 -51v-111q0 -47 -47 -47h-102q-50 0 -50 47z" />
    <glyph glyph-name="wcircumflex.smcp" horiz-adv-x="1742" 
d="M72 1167h166l352 -944l334 944h163l-137 -397l226 -547l342 944h153l-422 -1167h-151l-226 565l-198 -565h-160zM586 1292l239 267h146l213 -267h-146l-145 146l-160 -146h-147z" />
    <glyph glyph-name="uni1E6B.smcp" horiz-adv-x="1056" 
d="M72 1016v151h913v-151h-381v-1016h-151v1016h-381zM428 1337v111q0 51 49 51h103q47 0 47 -51v-111q0 -47 -47 -47h-103q-49 0 -49 47z" />
    <glyph glyph-name="ycircumflex.smcp" horiz-adv-x="1159" 
d="M657 -2h-151v391l-434 778h166l346 -618l338 618h165l-430 -778v-391zM281 1290l239 266h146l213 -266h-146l-145 146l-160 -146h-147z" />
    <glyph glyph-name="c_k" horiz-adv-x="2109" 
d="M82 562q0 325 102 440q50 56 110 78t182 22t431 -58v-110q-285 16 -397 16t-140 -6q-26 -6 -55 -29t-45 -65q-35 -93 -36 -314q-1 -220 85 -310t244 -89q227 0 645 385v1080h152v-945l489 433l219 -3l-538 -483l536 -604h-188l-457 508l-61 -55v-453h-152v317
q-381 -332 -645 -331q-148 0 -256 59q-225 122 -225 517z" />
    <glyph glyph-name="N.salt" horiz-adv-x="1392" 
d="M164 0v1335q0 98 69 146q70 47 154 21t123 -109l559 -1223q12 -27 31 -23q18 4 18 29v1323h152v-1337q0 -88 -67 -139t-149 -32t-120 109l-565 1235q-11 23 -31 18t-21 -32v-1321h-153z" />
    <glyph glyph-name="M.salt" horiz-adv-x="1640" 
d="M113 0l82 1335q0 98 74 148q75 49 161 23t113 -113l254 -840q13 -38 36 -22q9 7 13 22l229 842q27 87 114 113t163 -24t75 -149l101 -1335h-152l-104 1323q0 30 -33 34q-18 2 -22 -20l-228 -839q-20 -76 -92 -106q-73 -30 -145 0t-95 106l-256 837q-7 25 -29 19t-24 -33
l-86 -1321h-149z" />
    <glyph glyph-name="uni1E40.salt" horiz-adv-x="1640" 
d="M113 0l82 1335q0 98 74 148q75 49 161 23t113 -113l254 -840q13 -38 36 -22q9 7 13 22l229 842q27 87 114 113t163 -24t75 -149l101 -1335h-152l-104 1323q0 30 -33 34q-18 2 -22 -20l-228 -839q-20 -76 -92 -106q-73 -30 -145 0t-95 106l-256 837q-7 25 -29 19t-24 -33
l-86 -1321h-149zM737 1686v110q0 51 49 51h103q47 0 47 -51v-110q0 -47 -47 -48h-103q-49 1 -49 48z" />
    <glyph glyph-name="Ntilde.salt" horiz-adv-x="1392" 
d="M164 0v1335q0 98 69 146q70 47 154 21t123 -109l559 -1223q12 -27 31 -23q18 4 18 29v1323h152v-1337q0 -88 -67 -139t-149 -32t-120 109l-565 1235q-11 23 -31 18t-21 -32v-1321h-153zM728 1671q-62 33 -112 33t-101 -30q-52 -30 -79 -42l-43 84q55 45 83 67
q28 21 74 43t94 20t117 -37q69 -34 93 -33q45 -2 186 73l45 -86q-6 -4 -50 -40t-63 -48t-56 -27q-81 -34 -188 23z" />
    <glyph glyph-name="Nacute.salt" horiz-adv-x="1392" 
d="M164 0v1335q0 98 69 146q70 47 154 21t123 -109l559 -1223q12 -27 31 -23q18 4 18 29v1323h152v-1337q0 -88 -67 -139t-149 -32t-120 109l-565 1235q-11 23 -31 18t-21 -32v-1321h-153zM692 1632l219 273h195l-272 -273h-142z" />
    <glyph glyph-name="Ncaron.salt" horiz-adv-x="1392" 
d="M164 0v1335q0 98 69 146q70 47 154 21t123 -109l559 -1223q12 -27 31 -23q18 4 18 29v1323h152v-1337q0 -88 -67 -139t-149 -32t-120 109l-565 1235q-11 23 -31 18t-21 -32v-1321h-153zM440 1898h148l164 -145l141 145h145l-213 -266h-145z" />
    <glyph glyph-name="Ncommaaccent.salt" horiz-adv-x="1392" 
d="M164 0v1335q0 98 69 146q70 47 154 21t123 -109l559 -1223q12 -27 31 -23q18 4 18 29v1323h152v-1337q0 -88 -67 -139t-149 -32t-120 109l-565 1235q-11 23 -31 18t-21 -32v-1321h-153zM594 -307v100q0 49 47 49h94q43 0 43 -49v-166q0 -49 -17 -82t-43 -44
q-59 -25 -95 -17l-19 2v59q57 -2 58 58v45h-21q-47 0 -47 45z" />
    <glyph glyph-name="zero.numerator" horiz-adv-x="958" 
d="M252 756q0 -63 22 -85t97 -22h223q74 0 94 24t21 83v506q0 58 -23 82t-92 24h-223q-72 0 -96 -26t-23 -80v-506zM123 748v522q0 123 61 174t178 51h240q231 0 232 -225v-522q0 -134 -58 -180t-174 -46h-240q-104 0 -152 29t-68 76q-19 47 -19 121z" />
    <glyph glyph-name="one.numerator" horiz-adv-x="555" 
d="M422 1499v-975h-127v834l-262 -72v100l262 113h127z" />
    <glyph glyph-name="two.numerator" horiz-adv-x="792" 
d="M66 1384q-2 0 -3 25q0 25 3 49v23q254 31 374 30q266 0 267 -278q0 -72 -37 -154t-77 -138t-114 -130q-75 -74 -99 -94t-77 -66h402v-127h-633v119q16 15 83 65q232 175 307 273q112 146 112 238q-1 92 -35 129q-35 37 -121 36h-352z" />
    <glyph glyph-name="three.numerator" horiz-adv-x="831" 
d="M582 768v47q0 137 -140 141l-290 11v96l290 14q141 6 142 131v45q0 123 -142 123h-381v88q111 37 219 37h181q125 -1 186 -69t62 -170v-72q0 -68 -29 -116t-72 -64q100 -63 101 -193v-57q1 -119 -57 -181t-201 -63h-167q-97 0 -214 37l2 88l362 2q82 0 115 29t33 96z" />
    <glyph glyph-name="four.numerator" horiz-adv-x="854" 
d="M575 903v248l58 98h69v-346h121v-106l-121 -27v-246h-127v246h-497l-45 49l426 676h145l-371 -592h342z" />
    <glyph glyph-name="five.numerator" horiz-adv-x="858" 
d="M553 1124q223 0 223 -245v-131q0 -122 -60 -178t-163 -56q-274 0 -440 29v100h432q104 0 104 113v146q0 45 -15 60q-35 35 -89 35h-236q-90 0 -90 -100h-106l30 598h605v-127h-486l-16 -283q20 21 67 31t82 11t94 -1t64 -2z" />
    <glyph glyph-name="six.numerator" horiz-adv-x="901" 
d="M240 969q0 -317 137 -318h217q51 0 74 25t22 80v125q0 51 -22 69q-23 18 -74 19h-354zM784 1380h-413q-125 0 -131 -313q262 29 374 29q204 0 203 -207v-150q0 -106 -58 -160t-157 -55h-219q-61 0 -107 20q-169 72 -163 486q4 299 81 391q38 47 76 65t95 21
q176 10 419 -24v-103z" />
    <glyph glyph-name="seven.numerator" horiz-adv-x="751" 
d="M31 1372v127h653l35 -63l-373 -912h-143l350 848h-522z" />
    <glyph glyph-name="eight.numerator" horiz-adv-x="954" 
d="M262 1192q0 -113 100 -113h228q102 0 102 113v65q0 72 -25 97q-26 25 -87 24h-199q-71 0 -95 -26t-24 -95v-65zM262 741q0 -51 22 -71t83 -21h229q96 0 96 92v103q0 106 -94 106h-236q-100 0 -100 -106v-103zM135 733v119q0 113 113 147q-113 37 -113 185v82
q1 133 63 186t175 53h225q111 0 166 -55t55 -184v-82q5 -61 -25 -102q-31 -42 -73 -52q49 -8 74 -65t24 -113v-119q0 -213 -215 -213h-246q-129 0 -176 58t-47 155z" />
    <glyph glyph-name="nine.numerator" horiz-adv-x="901" 
d="M219 1151q0 -51 23 -69t73 -19h355q0 317 -131 317h-224q-51 0 -73 -24t-23 -80v-125zM92 1143v149q0 106 58 160t157 55h219q60 0 106 -19q168 -70 164 -486q-3 -300 -76 -391q-38 -46 -77 -64t-96 -23q-238 -18 -422 25v102h412q127 0 133 314q-262 -29 -374 -29
t-158 58t-46 149z" />
    <glyph glyph-name="zero.denominator" horiz-adv-x="958" 
d="M252 233q0 -63 22 -85t97 -21h223q74 0 94 24t21 82v506q0 57 -23 82t-92 25h-223q-72 0 -96 -26t-23 -81v-506zM123 225v523q0 123 61 174t178 51h240q231 0 232 -225v-523q0 -135 -58 -180t-174 -45h-240q-104 0 -152 29t-68 75t-19 121z" />
    <glyph glyph-name="one.denominator" horiz-adv-x="555" 
d="M422 977v-975h-127v834l-262 -72v100l262 113h127z" />
    <glyph glyph-name="two.denominator" horiz-adv-x="792" 
d="M66 862q-2 0 -3 25q0 25 3 47v24q254 31 374 31q266 0 267 -278q0 -72 -37 -154t-77 -138t-114 -130q-75 -74 -99 -94t-77 -66h402v-127h-633v119q16 14 83 64q228 170 324 295q96 124 95 216q-2 94 -36 130t-120 36h-352z" />
    <glyph glyph-name="three.denominator" horiz-adv-x="831" 
d="M582 246v47q0 137 -140 141l-290 10v97l290 14q141 6 142 131v45q0 123 -142 123h-381v88q111 37 219 37h181q125 0 186 -69t62 -171v-71q0 -68 -29 -116t-72 -65q100 -63 101 -192v-57q1 -120 -57 -182t-201 -62h-175q-105 0 -206 37l2 88l362 2q82 0 115 29t33 96z" />
    <glyph glyph-name="four.denominator" horiz-adv-x="854" 
d="M575 381v248l58 98h69v-346h121v-107l-121 -26v-246h-127v246h-497l-45 49l426 676h145l-371 -592h342z" />
    <glyph glyph-name="five.denominator" horiz-adv-x="858" 
d="M553 602q223 0 223 -246v-131q0 -121 -60 -177t-163 -56q-274 -1 -440 28v101h432q104 0 104 112v147q0 46 -15 60q-38 35 -89 35h-236q-90 0 -90 -100h-106l30 598h605v-127h-486l-16 -283q20 21 67 31t82 11t94 -1t64 -2z" />
    <glyph glyph-name="six.denominator" horiz-adv-x="901" 
d="M240 446q0 -317 137 -317h217q51 0 74 25t22 79v125q0 51 -22 70q-23 18 -74 18h-354zM784 858h-413q-125 0 -131 -313q262 29 374 29t157 -58q46 -57 46 -149v-150q0 -107 -58 -161t-157 -54h-219q-61 0 -107 20q-169 72 -163 486q4 299 81 391q38 47 76 65t95 21
q217 12 419 -24v-103z" />
    <glyph glyph-name="seven.denominator" horiz-adv-x="751" 
d="M31 850v127h653l35 -64l-373 -911h-143l350 848h-522z" />
    <glyph glyph-name="eight.denominator" horiz-adv-x="954" 
d="M262 670q0 -113 100 -113h228q102 0 102 113v65q0 73 -26 97t-86 24h-199q-71 0 -95 -26t-24 -95v-65zM262 219q0 -51 22 -71t83 -21h229q96 0 96 92v103q0 106 -94 106h-236q-100 0 -100 -106v-103zM135 211v119q0 113 113 147q-113 37 -113 185v81q1 133 63 187t175 53
h225q111 0 166 -55t55 -185v-81q5 -62 -25 -103q-31 -41 -73 -51q49 -8 74 -66t24 -112v-119q0 -213 -215 -213h-246q-129 0 -176 58t-47 155z" />
    <glyph glyph-name="nine.denominator" horiz-adv-x="901" 
d="M219 629q0 -51 23 -69t73 -19h355q0 317 -131 317h-224q-51 0 -73 -24t-23 -80v-125zM92 621v149q0 106 58 160t157 55h219q60 0 106 -19q168 -70 164 -486q-3 -302 -76 -391q-38 -46 -77 -64t-96 -23q-231 -18 -422 25v102h412q127 0 133 313q-262 -28 -374 -28t-158 58
t-46 149z" />
    <glyph glyph-name="c_h" horiz-adv-x="2146" 
d="M1155 422v1184h152v-645q8 3 48 27q160 94 285 114q33 4 68 4q156 0 246 -102t90 -246v-758h-152v758q0 96 -51 146t-136 50q-148 0 -248 -46t-150 -70v-416q0 -127 -42 -215t-112 -130q-158 -95 -346 -89q-95 2 -191 -1t-178 -2t-141 23q-143 52 -188 250
q-27 115 -27 287q0 343 102 457q50 56 110 78t182 22t431 -58v-110q-285 16 -397 16t-140 -6q-26 -6 -55 -29t-45 -65q-35 -93 -36 -318q-2 -224 46 -310t160 -85l225 -2q142 0 186 5t102 17t104 45q47 34 62 62q36 68 36 158z" />
    <glyph glyph-name="m.salt" horiz-adv-x="1835" 
d="M860 758q0 196 -202 196q-100 0 -176 -13q-77 -13 -208 -62v-879h-151v989q176 69 284 93t261 24t243 -90q139 53 239 71q100 19 251 19t241 -102t91 -246v-758h-152v758q1 196 -201 196q-100 0 -177 -13t-208 -62q16 -51 17 -121v-758h-152v758z" />
    <glyph glyph-name="n.salt" 
d="M860 758q0 196 -202 196q-100 0 -176 -13q-77 -13 -208 -62v-879h-151v989q176 69 284 93q109 24 267 24t248 -102t90 -246v-758h-152v758z" />
    <glyph glyph-name="ntilde.salt" 
d="M860 758q0 196 -202 196q-100 0 -176 -13q-77 -13 -208 -62v-879h-151v989q176 69 284 93q109 24 267 24t248 -102t90 -246v-758h-152v758zM221 1313q55 45 83 67t74 42q46 22 94 20t117 -36t93 -34q45 -2 186 74l45 -86q-6 -4 -50 -40q-115 -94 -180 -89q-65 4 -127 37
t-112 32t-102 -31q-51 -30 -78 -40z" />
    <glyph glyph-name="ncommaaccent.salt" 
d="M860 758q0 196 -202 196q-100 0 -176 -13q-77 -13 -208 -62v-879h-151v989q176 69 284 93q109 24 267 24t248 -102t90 -246v-758h-152v758zM471 -291v98q0 49 47 50h94q43 0 43 -50v-165q0 -49 -17 -82t-43 -44q-61 -26 -95 -18l-19 2v60q57 -2 58 55v47h-21
q-47 0 -47 47z" />
    <glyph glyph-name="ncaron.salt" 
d="M860 758q0 196 -202 196q-100 0 -176 -13q-77 -13 -208 -62v-879h-151v989q176 69 284 93q109 24 267 24t248 -102t90 -246v-758h-152v758zM262 1495h148l163 -145l142 145h145l-213 -266h-145z" />
    <glyph glyph-name="nacute.salt" 
d="M860 758q0 196 -202 196q-100 0 -176 -13q-77 -13 -208 -62v-879h-151v989q176 69 284 93q109 24 267 24t248 -102t90 -246v-758h-152v758zM516 1229l219 272h195l-273 -272h-141z" />
    <glyph glyph-name="uni1E41.salt" horiz-adv-x="1835" 
d="M860 758q0 196 -202 196q-100 0 -176 -13q-77 -13 -208 -62v-879h-151v989q176 69 284 93t261 24t243 -90q139 53 239 71q100 19 251 19t241 -102t91 -246v-758h-152v758q1 196 -201 196q-100 0 -177 -13t-208 -62q16 -51 17 -121v-758h-152v758zM877 1276v110
q0 51 49 52h102q47 0 47 -52v-110q0 -47 -47 -47h-102q-49 0 -49 47z" />
    <glyph glyph-name="r.salt" horiz-adv-x="878" 
d="M123 0v989q203 82 341 108t372 5v-154q-150 16 -282 1t-280 -70v-879h-151z" />
    <glyph glyph-name="racute.salt" horiz-adv-x="878" 
d="M123 0v989q203 82 341 108t372 5v-154q-150 16 -282 1t-280 -70v-879h-151zM451 1233l219 272h194l-272 -272h-141z" />
    <glyph glyph-name="rcaron.salt" horiz-adv-x="878" 
d="M123 0v989q203 82 341 108t372 5v-154q-150 16 -282 1t-280 -70v-879h-151zM221 1499h148l163 -145l142 145h145l-213 -266h-145z" />
    <glyph glyph-name="rcommaaccent.salt" horiz-adv-x="878" 
d="M123 0v989q203 82 341 108t372 5v-154q-150 16 -282 1t-280 -70v-879h-151zM106 -291v98q0 49 48 50h94q43 0 43 -50v-165q1 -49 -17 -82t-44 -44q-61 -26 -95 -18l-18 2v60q57 -2 57 55v47h-20q-48 0 -48 47z" />
    <glyph glyph-name="x.salt" horiz-adv-x="1110" 
d="M621 397q-84 123 -31 251q23 56 72 124l223 315h184l-272 -376q-47 -66 -61 -99q-29 -67 40 -172l293 -440h-184zM41 0l293 440q70 105 41 172q-14 33 -62 99l-272 376h184l224 -315q49 -68 71 -124q53 -131 -31 -251l-264 -397h-184z" />
    <glyph glyph-name="X.salt" horiz-adv-x="1253" 
d="M692 582q-104 176 41 415l307 502h172l-344 -563q-41 -68 -55 -110q-31 -92 35 -201l364 -625h-172zM41 0l365 625q67 110 34 201q-14 42 -55 110l-344 563h172l307 -502q145 -240 41 -415l-348 -582h-172z" />
    <glyph glyph-name="a.salt" horiz-adv-x="1097" 
d="M254 268q0 -57 25 -87t104 -29h295q106 0 136 41t30 126v213l-461 -32q-69 -4 -99 -28t-30 -73v-131zM102 268v131q0 250 281 250h461q0 185 -46 243t-169 56q-27 0 -504 -24v114q29 4 187 33t323 29q213 -2 287 -121t73 -442v-218q0 -319 -317 -319h-295
q-281 0 -281 268z" />
    <glyph glyph-name="agrave.salt" horiz-adv-x="1097" 
d="M254 268q0 -57 25 -87t104 -29h295q106 0 136 41t30 126v213l-461 -32q-69 -4 -99 -28t-30 -73v-131zM102 268v131q0 250 281 250h461q0 185 -46 243t-169 56q-27 0 -504 -24v114q29 4 187 33t323 29q213 -2 287 -121t73 -442v-218q0 -319 -317 -319h-295
q-281 0 -281 268zM246 1495h194l219 -272h-141z" />
    <glyph glyph-name="aacute.salt" horiz-adv-x="1097" 
d="M254 268q0 -57 25 -87t104 -29h295q106 0 136 41t30 126v213l-461 -32q-69 -4 -99 -28t-30 -73v-131zM102 268v131q0 250 281 250h461q0 185 -46 243t-169 56q-27 0 -504 -24v114q29 4 187 33t323 29q213 -2 287 -121t73 -442v-218q0 -319 -317 -319h-295
q-281 0 -281 268zM473 1223l219 272h195l-273 -272h-141z" />
    <glyph glyph-name="atilde.salt" horiz-adv-x="1097" 
d="M254 268q0 -57 25 -87t104 -29h295q106 0 136 41t30 126v213l-461 -32q-69 -4 -99 -28t-30 -73v-131zM102 268v131q0 250 281 250h461q0 185 -46 243t-169 56q-27 0 -504 -24v114q29 4 187 33t323 29q213 -2 287 -121t73 -442v-218q0 -319 -317 -319h-295
q-281 0 -281 268zM582 1400q70 -34 90 -34t35 4q14 4 31 8t28 12q12 7 28 15l22 11q4 3 22 12t22 12l45 -86q-4 -4 -49 -40t-63 -48q-111 -74 -245 -4q-62 32 -95 32t-63 -9t-70 -31q-40 -23 -64 -31l-43 84q55 45 84 67q87 64 158 64q57 -4 127 -38z" />
    <glyph glyph-name="aring.salt" horiz-adv-x="1097" 
d="M254 268q0 -57 25 -87t104 -29h295q106 0 136 41t30 126v213l-461 -32q-69 -4 -99 -28t-30 -73v-131zM102 268v131q0 250 281 250h461q0 185 -46 243t-169 56q-27 0 -504 -24v114q29 4 187 33t323 29q213 -2 287 -121t73 -442v-218q0 -319 -317 -319h-295
q-281 0 -281 268zM434 1433q0 -46 33 -79t79 -33t79 33t32 79q-1 47 -33 79t-78 32t-79 -32t-33 -79zM338 1439q0 50 28 99q61 106 181 104q86 0 146 -61q61 -61 61 -133t-28 -122q-28 -48 -75 -76t-97 -28t-88 17q-38 16 -67 44t-45 67t-16 89z" />
    </font>
</defs>
</svg>
