<?xml version="1.0" standalone="no"?>
<!DOCTYPE svg PUBLIC "-//W3C//DTD SVG 1.1//EN" "http://www.w3.org/Graphics/SVG/1.1/DTD/svg11.dtd" >
<svg xmlns="http://www.w3.org/2000/svg">
<metadata>
Created by FontPrep 20130207 at Sat Jan 14 23:01:55 2017
 By Predrag Jevtic
Copyright (c) 2011 Natanael Gama (exo@ndiscovered.com), with Reserved Font Name "Exo"
</metadata>
<defs>
<font id="d3f746777e18fc9f1c0cb1fc28ee1592" horiz-adv-x='1024' >
  <font-face 
    font-family="Exo-Light"
    font-weight="300"
    font-stretch="normal"
    units-per-em="2048"
    panose-1="2 0 3 3 0 0 0 0 0 0"
    ascent="1638"
    descent="-410"
    x-height="1087"
    cap-height="1499"
    bbox="-207 -558.5 2732 2052"
    underline-thickness="102"
    underline-position="-102"
    unicode-range="U+000D-FB06"
  />
<missing-glyph horiz-adv-x="1579" 
d="M219 0v1087h1143v-1087h-1143zM1315 1061h-1047l527 -496zM248 45l524 500l-524 493v-993zM274 27h1039l-518 497zM1333 1036l-516 -491l516 -494v985z" />
    <glyph glyph-name="fi" unicode="fi" horiz-adv-x="1234" 
d="M45 967v88l201 28v113q0 184 104 299t287 115q100 0 212 -22t167 -38v-75l-352 20q-127 5 -214 -65t-88 -234v-113l748 -18v-1065h-119v967h-629v-967h-116v967h-201z" />
    <glyph glyph-name="fl" unicode="fl" horiz-adv-x="1470" 
d="M45 971v86l203 30v109q0 178 78 296t256 118h530v-1221q0 -121 27 -187q23 -64 114 -83q158 -37 172 -37v-80h-165q-141 0 -203 89q-61 89 -62 298v1106h-387q-119 0 -181 -67t-62 -232v-109h299v-116h-302v-971h-116v971h-201z" />
    <glyph glyph-name=".notdef" horiz-adv-x="1579" 
d="M219 0v1087h1143v-1087h-1143zM1315 1061h-1047l527 -496zM248 45l524 500l-524 493v-993zM274 27h1039l-518 497zM1333 1036l-516 -491l516 -494v985z" />
    <glyph glyph-name=".notdef" horiz-adv-x="1579" 
d="M219 0v1087h1143v-1087h-1143zM1315 1061h-1047l527 -496zM248 45l524 500l-524 493v-993zM274 27h1039l-518 497zM1333 1036l-516 -491l516 -494v985z" />
    <glyph glyph-name=".null" horiz-adv-x="0" 
 />
    <glyph glyph-name="uni000D" unicode="&#xd;" horiz-adv-x="1984" 
 />
    <glyph glyph-name="space" unicode=" " horiz-adv-x="532" 
 />
    <glyph glyph-name="exclam" unicode="!" horiz-adv-x="542" 
d="M201 1497h135l-12 -1096h-111zM188 39v121q0 43 41 43h82q39 0 39 -43v-121q0 -39 -39 -39h-82q-17 0 -29 12t-12 27z" />
    <glyph glyph-name="quotedbl" unicode="&#x22;" horiz-adv-x="694" 
d="M416 1499h119v-137l-19 -275h-82l-18 275v137zM164 1499h119v-137l-19 -275h-82l-18 275v137z" />
    <glyph glyph-name="numbersign" unicode="#" horiz-adv-x="1382" 
d="M477 567l350 -2l58 367h-350zM45 487l12 80h340l58 365h-340l14 80h338l78 487h80l-78 -487h352l78 487h78l-76 -487h362l-14 -80h-362l-58 -367h363l-13 -80h-362l-78 -485h-78l76 485l-352 2l-78 -487h-78l76 487h-338z" />
    <glyph glyph-name="dollar" unicode="$" horiz-adv-x="1183" 
d="M487 676q-362 0 -362 336v135q4 214 112 289t289 75v177h92v-181q82 -6 381 -41v-88l-471 19q-141 4 -214 -47t-72 -203v-135q0 -123 66 -170t177 -47h248q201 0 268 -107q58 -90 58 -229v-140q0 -354 -441 -335v-166h-92v174q-252 20 -356 37v84q373 -12 479 -13
q293 0 293 219v140q0 72 -18 118q-39 99 -191 99h-246z" />
    <glyph glyph-name="percent" unicode="%" horiz-adv-x="1953" 
d="M1227 260q0 -92 36 -125t126 -33h206q98 0 132 33t34 125v272q0 118 -64 144q-34 14 -98 14h-206q-100 0 -133 -32t-33 -126v-272zM1128 260v272q0 136 58 196t207 60h206q145 0 203 -60t58 -196v-272q0 -135 -58 -195t-207 -61h-206q-145 0 -203 60t-58 196zM475 0
l897 1499h111l-897 -1499h-111zM195 971q-1 -92 35 -125t126 -33h207q98 0 132 33t34 125v272q0 117 -64 143q-34 14 -98 15h-207q-68 -1 -102 -15t-49 -47q-14 -33 -14 -96v-272zM96 971v272q0 135 58 195t206 61h207q145 0 203 -60t57 -196v-272q0 -135 -57 -195t-207 -61
h-207q-144 1 -202 61t-58 195z" />
    <glyph glyph-name="ampersand" unicode="&#x26;" horiz-adv-x="1314" 
d="M266 233q78 -99 199 -123t219 60l160 149l-359 484l-159 -133q-165 -138 -130 -293q15 -72 70 -144zM977 1386h-416q-202 0 -219 -120q-8 -63 68 -164l520 -703l260 265l39 -39l-119 -203l-109 -113l224 -309h-142l-168 227l-147 -137q-82 -76 -193 -95t-221 26t-186 147
q-111 152 -87 308t161 274l176 149l-129 174q-78 111 -67 201q12 90 72 148t138 69q236 31 545 -27v-78z" />
    <glyph glyph-name="quotesingle" unicode="'" horiz-adv-x="327" 
d="M104 1499h119v-137l-16 -275h-82l-21 275v137z" />
    <glyph glyph-name="parenleft" unicode="(" horiz-adv-x="671" 
d="M172 636q0 273 63 495q95 336 244 600l19 30h127q-12 -23 -35 -61t-81 -162q-58 -123 -103 -246t-81 -296q-36 -172 -36 -336t35 -340t109 -371q74 -194 159 -326l35 -53h-129q-42 55 -106 183q-64 129 -107 249t-78 304q-35 182 -35 330z" />
    <glyph glyph-name="parenright" unicode=")" horiz-adv-x="669" 
d="M383 660q0 164 -35 334t-111 373q-76 204 -157 335l-35 59h129q12 -23 35 -61t79 -161q56 -122 99 -245t78 -296q35 -174 35 -342t-34 -348t-106 -377q-72 -196 -153 -310l-33 -51h-129q49 70 113 198q63 128 107 248t81 300t37 344z" />
    <glyph glyph-name="asterisk" unicode="*" horiz-adv-x="919" 
d="M537 1157l239 160l31 -55l-193 -195zM449 987l63 100l229 -180l-32 -51zM381 1473l61 24l150 -246l-109 -49zM262 844l55 276l117 -26l-112 -269zM115 1178v63l286 41l7 -115z" />
    <glyph glyph-name="plus" unicode="+" horiz-adv-x="1058" 
d="M115 672v114h356v359h117v-359h358v-114h-358v-359h-117v359h-356z" />
    <glyph glyph-name="comma" unicode="," horiz-adv-x="483" 
d="M164 43v117q0 45 41 45h76q41 0 41 -45v-201q0 -112 -98 -126q-23 -3 -52 1v47q51 -2 51 53v66h-18q-41 0 -41 43z" />
    <glyph glyph-name="hyphen" unicode="-" horiz-adv-x="712" 
d="M45 537v114h623v-114h-623z" />
    <glyph glyph-name="period" unicode="." horiz-adv-x="487" 
d="M164 39v121q0 43 39 43h80q43 0 43 -43v-121q0 -39 -43 -39h-80q-16 0 -28 11q-11 12 -11 28z" />
    <glyph glyph-name="slash" unicode="/" horiz-adv-x="786" 
d="M45 -147l576 1724h120l-575 -1724h-121z" />
    <glyph glyph-name="zero" unicode="0" horiz-adv-x="1329" 
d="M276 332q0 -109 66 -162t170 -53h315q225 0 226 215v835q0 215 -226 215h-315q-115 0 -175 -58t-61 -157v-835zM160 332v835q0 160 99 246t253 86h315q180 0 261 -93t81 -239v-835q0 -332 -342 -332h-315q-150 0 -251 77t-101 255z" />
    <glyph glyph-name="one" unicode="1" horiz-adv-x="735" 
d="M553 1499v-1499h-117v1366l-344 -121v80l344 174h117z" />
    <glyph glyph-name="two" unicode="2" horiz-adv-x="1222" 
d="M92 1401v84q266 35 602 35q306 0 391 -268q25 -75 25 -174t-71 -231t-165 -241t-241 -244t-307 -245h784v-117h-1004v109q368 263 568 466q123 125 180 202q137 185 137 324t-75 219t-226 81h-598z" />
    <glyph glyph-name="three" unicode="3" horiz-adv-x="1220" 
d="M68 1386v72q109 33 257 41t373 4q168 -2 260 -96t93 -242v-141q0 -80 -29 -142q-48 -102 -145 -137q174 -86 174 -294v-121q0 -344 -365 -344q-292 0 -414 11q-123 11 -192 34l4 73h592q183 0 232 109q22 47 22 117v121q0 121 -73 176t-171 59l-479 14v88l479 19
q112 2 180 58t68 159v141q0 111 -71 166t-175 55h-620z" />
    <glyph glyph-name="four" unicode="4" horiz-adv-x="1214" 
d="M868 522v445l58 153h59v-598h184v-90l-184 -31v-397h-117v397h-768l-55 66l649 1032h137l-610 -977h647z" />
    <glyph glyph-name="five" unicode="5" horiz-adv-x="1265" 
d="M174 115h623q104 1 161 65t58 164v215q0 114 -52 171q-52 56 -167 56h-316q-76 0 -136 -52t-60 -136h-107l45 901h864v-117h-755l-29 -565q23 29 73 55t103 30q110 6 201 4q91 -3 117 -3q174 0 255 -91t81 -249v-223q0 -152 -82 -244q-98 -104 -254 -104q-219 0 -341 6
t-282 33v84z" />
    <glyph glyph-name="six" unicode="6" horiz-adv-x="1284" 
d="M266 743q0 -500 162 -600q47 -29 107 -28h284q100 0 158 40q57 40 57 154v248q0 106 -57 146t-158 40h-553zM302 93q-152 164 -152 701t222 679q60 39 130 38q354 0 598 -32v-84h-580q-59 0 -106 -42q-47 -41 -74 -103q-74 -169 -74 -425q305 35 529 35t289 -84t65 -219
v-254q0 -305 -330 -305h-284q-72 0 -127 20t-106 75z" />
    <glyph glyph-name="seven" unicode="7" horiz-adv-x="1110" 
d="M68 1382v117h925l49 -82l-524 -1417h-139l514 1382h-825z" />
    <glyph glyph-name="eight" unicode="8" horiz-adv-x="1312" 
d="M289 1012q-1 -119 71 -154t150 -35h305q113 -1 162 57t49 132v139q0 129 -52 185t-163 57h-279q-129 1 -186 -51t-57 -191v-139zM1026 524q0 180 -211 185h-305q-86 0 -154 -44t-67 -141v-215q0 -193 243 -192h277q86 0 152 48t65 144v215zM172 315v201q0 184 184 223
q-100 29 -142 108t-42 175v133q0 195 94 275t266 79h279q222 0 294 -150q38 -79 38 -204v-133q1 -69 -23 -121q-46 -102 -143 -119q84 -18 125 -98t41 -168v-201q0 -210 -161 -280q-80 -35 -173 -35h-277q-204 0 -289 98q-71 79 -71 217z" />
    <glyph glyph-name="nine" unicode="9" horiz-adv-x="1284" 
d="M252 948q0 -106 57 -146t158 -40h553q0 279 -43 415q-68 214 -225 214h-285q-99 0 -157 -40t-58 -155v-248zM137 948v254q0 305 330 305h285q72 0 127 -20q122 -44 189 -221t69 -547q0 -543 -223 -686q-60 -39 -130 -39q-422 0 -598 33v84h578q76 0 129 60t88 189t39 322
q-307 -37 -530 -37t-288 86q-65 87 -65 217z" />
    <glyph glyph-name="colon" unicode=":" horiz-adv-x="489" 
d="M164 926v121q0 41 39 40h80q43 0 43 -40v-121q0 -39 -43 -39h-80q-16 0 -28 10q-11 11 -11 29zM164 39v121q0 43 39 43h80q43 0 43 -43v-121q0 -39 -43 -39h-80q-16 0 -28 11q-11 12 -11 28z" />
    <glyph glyph-name="semicolon" unicode=";" horiz-adv-x="489" 
d="M166 926v121q0 43 41 43h80q41 0 41 -43v-121q0 -39 -41 -39h-80q-18 0 -30 11q-11 12 -11 28zM164 43v117q0 24 14 35q14 10 27 10h76q41 0 41 -45v-201q0 -112 -98 -126q-23 -3 -52 1v47q51 -2 51 53v66h-18q-16 0 -29 13q-12 14 -12 30z" />
    <glyph glyph-name="less" unicode="&#x3c;" horiz-adv-x="974" 
d="M115 666v120l747 353v-127l-592 -287l592 -307v-131z" />
    <glyph glyph-name="equal" unicode="=" horiz-adv-x="964" 
d="M45 897v117h875v-117h-875zM45 434v117h875v-117h-875z" />
    <glyph glyph-name="greater" unicode="&#x3e;" horiz-adv-x="974" 
d="M115 287v131l592 307l-592 287v127l747 -353v-120z" />
    <glyph glyph-name="question" unicode="?" horiz-adv-x="1099" 
d="M354 39v121q0 43 41 43h84q39 0 39 -43v-121q0 -39 -39 -39h-84q-17 0 -29 12t-12 27zM45 1395v84q332 41 557 34q408 2 408 -378v-207q0 -389 -514 -322v-207h-119v303h264q115 2 185 56t69 170v207q0 141 -72 200t-235 60h-543z" />
    <glyph glyph-name="at" unicode="@" horiz-adv-x="1742" 
d="M582 280q0 -44 2 -47q0 -53 46 -94t113 -41q131 -2 379 117v307l-381 -28q-71 -6 -115 -48t-42 -120q-2 -2 -2 -46zM150 0v713q0 331 344 336h430q118 0 216 -62q97 -62 97 -225v-762h-88l-23 131l-24 -15q-152 -91 -236 -112q-85 -22 -137 -22q-115 -2 -189 66t-73 173
v109q0 124 69 198t195 74h391q2 156 0 156q0 96 -51 135t-153 39h-424q-106 0 -166 -47t-62 -172v-713q0 -196 148 -236q37 -10 80 -10h694q133 0 189 60t57 186v1049q0 125 -64 195q-64 71 -182 73h-817v74q221 45 590 43h227q227 -4 316 -173q46 -87 46 -212v-1049
q0 -365 -362 -365h-694q-160 1 -252 95t-92 270z" />
    <glyph glyph-name="A" unicode="A" horiz-adv-x="1363" 
d="M442 569h543l-266 760zM102 0l555 1499h125l529 -1499h-137l-148 453h-627l-155 -453h-142z" />
    <glyph glyph-name="B" unicode="B" horiz-adv-x="1222" 
d="M301 844h440q127 0 199 70t74 200q2 268 -273 268h-440v-538zM301 117h440q279 0 279 305q0 129 -76 217t-203 88h-440v-610zM184 0v1499h557q215 0 302 -115t87 -256t-56 -231t-159 -117q82 -18 152 -111t70 -258t-79 -280q-90 -131 -317 -131h-557z" />
    <glyph glyph-name="C" unicode="C" horiz-adv-x="1177" 
d="M625 -12q-500 0 -500 766q0 471 147 631q120 131 353 131q80 0 226 -16t253 -36v-88l-62 4q-30 2 -68 4t-83 6t-111 6q-66 3 -181 3t-195 -53q-162 -106 -162 -596q0 -645 383 -646q204 0 450 17l29 2v-90q-255 -45 -479 -45z" />
    <glyph glyph-name="D" unicode="D" horiz-adv-x="1353" 
d="M301 121h426q106 0 188 53q149 96 203 342q25 109 25 229q0 637 -416 637h-426v-1261zM184 0v1499h543q176 0 281 -76q106 -76 158 -187q89 -185 94 -493q0 -223 -76 -407q-141 -336 -457 -336h-543z" />
    <glyph glyph-name="E" unicode="E" horiz-adv-x="1171" 
d="M184 252v981q0 141 73 206t185 60l633 -29v-88h-633q-80 0 -110 -38t-31 -111v-428l692 -17v-90l-692 -16v-430q0 -96 53 -122q39 -19 109 -19h612v-86l-612 -31q-206 -7 -256 120q-23 56 -23 138z" />
    <glyph glyph-name="F" unicode="F" horiz-adv-x="1171" 
d="M184 0v1233q0 141 73 206t185 60l633 -29v-88h-633q-80 0 -110 -38t-31 -111v-428l692 -17v-90l-692 -16v-682h-117z" />
    <glyph glyph-name="G" unicode="G" horiz-adv-x="1261" 
d="M125 776q0 424 128 592q50 66 136 107q85 41 185 41t265 -18t271 -38v-92q-2 0 -38 3t-92 7t-156 12t-209 9q-109 0 -171 -28q-124 -56 -163 -208t-39 -409q0 -358 77 -503q78 -144 283 -147q132 0 354 74l72 25v475h-377v78q152 41 355 41q66 0 139 -6v-791h-86l-27 104
q-109 -61 -227 -88q-117 -26 -204 -26q-260 1 -364 165q-36 56 -57 117q-55 168 -55 504z" />
    <glyph glyph-name="H" unicode="H" horiz-adv-x="1323" 
d="M184 0v1499h117v-717h778v717h117v-1499h-117v668h-778v-668h-117z" />
    <glyph glyph-name="I" unicode="I" horiz-adv-x="428" 
d="M184 0v1499h117v-1499h-117z" />
    <glyph glyph-name="J" unicode="J" horiz-adv-x="727" 
d="M483 338v1161h117v-1161q0 -229 -106 -301q-78 -51 -206 -49t-208 55l8 82q39 -10 65 -15t71 -14t100 0q56 8 78 26q53 44 67 102q14 57 14 114z" />
    <glyph glyph-name="K" unicode="K" horiz-adv-x="1210" 
d="M184 0v1499h117v-688h215l479 688h142l-512 -747l512 -752h-142l-479 692h-213v-692h-119z" />
    <glyph glyph-name="L" unicode="L" horiz-adv-x="1140" 
d="M184 258v1241h117v-1241q0 -98 46 -119q46 -22 116 -22h604v-117h-604q-118 0 -190 41q-89 51 -89 217z" />
    <glyph glyph-name="M" unicode="M" horiz-adv-x="1636" 
d="M125 0l123 1499h162l411 -1304l402 1304h163l134 -1499h-117l-117 1298l-401 -1298h-121l-414 1298l-108 -1298h-117z" />
    <glyph glyph-name="N" unicode="N" horiz-adv-x="1380" 
d="M184 0v1499h119l834 -1280v1280h116v-1499h-116l-836 1280v-1280h-117z" />
    <glyph glyph-name="O" unicode="O" horiz-adv-x="1382" 
d="M323 1193q-57 -126 -57 -410t27 -404q27 -121 106 -196q78 -74 320 -74q106 0 175 13q157 30 217 168q60 139 60 457q0 317 -47 432t-104 155q-58 40 -133 49q-75 10 -164 10q-90 0 -137 -4q-46 -5 -108 -23t-93 -60t-62 -113zM258 159q-108 150 -108 580t115 598
q40 57 83 90t129 57t207 25q121 0 180 -6q152 -16 229 -76q104 -82 150 -245q45 -163 45 -385q0 -223 -16 -343q-29 -215 -129 -336q-78 -95 -253 -117q-71 -9 -164 -9q-92 0 -154 5q-157 13 -233 75q-42 33 -81 87z" />
    <glyph glyph-name="P" unicode="P" horiz-adv-x="1191" 
d="M254 745h483q180 0 221 155q18 69 18 162q1 232 -114 292q-51 26 -125 26h-483v-635zM137 0v1499h600q192 0 275 -111q84 -111 84 -315q0 -375 -223 -431q-67 -15 -132 -15t-272 15t-215 20v-662h-117z" />
    <glyph glyph-name="Q" unicode="Q" horiz-adv-x="1382" 
d="M672 -68h80q131 -147 348 -71v-125q-104 -45 -256 3q-64 19 -112 70t-60 123zM322 1193q-56 -128 -56 -433q0 -304 42 -430q24 -72 56 -114t105 -74t213 -33q141 0 210 13t126 51q153 103 153 537q0 358 -53 479q-20 48 -39 82q-27 50 -102 86t-211 36q-135 0 -182 -4
q-46 -5 -108 -23t-93 -60t-61 -113zM150 750q0 421 113 587q40 57 82 90t126 57t207 25q123 0 182 -6q157 -16 231 -76q107 -84 152 -246t45 -384q0 -223 -16 -343q-29 -217 -130 -336q-80 -95 -254 -117q-71 -9 -159 -9q-258 0 -356 57t-150 171q-51 113 -62 252
q-11 140 -11 278z" />
    <glyph glyph-name="R" unicode="R" horiz-adv-x="1200" 
d="M254 754h498q140 0 186 74q45 74 45 205q0 236 -75 296q-59 51 -156 51h-498v-626zM137 0v1499h615q350 0 350 -436q0 -299 -146 -387q-44 -27 -72 -34t-65 -9l322 -633h-127l-320 629q-30 0 -234 12t-206 14v-655h-117z" />
    <glyph glyph-name="S" unicode="S" horiz-adv-x="1196" 
d="M1102 319q0 -335 -378 -335q-106 0 -283 15t-251 30v90q199 -19 372 -19t207 3q143 13 196 117q20 42 20 99v140q0 109 -47 163t-160 54h-268q-257 0 -327 146q-33 69 -33 190v135q0 215 115 295q99 69 286 69q74 0 242 -16t251 -29v-90l-493 19q-141 6 -213 -44
t-72 -204v-135q0 -138 65 -183q37 -27 86 -30q50 -4 89 -4h272q197 0 264 -107q60 -93 60 -229v-140z" />
    <glyph glyph-name="T" unicode="T" horiz-adv-x="1200" 
d="M94 1382v117h1047v-117h-471v-1382h-117v1382h-459z" />
    <glyph glyph-name="U" unicode="U" horiz-adv-x="1390" 
d="M184 655v844h117v-844q0 -346 87 -446q34 -39 61 -59q59 -44 243 -44q183 0 226 16q92 36 125 84q58 85 71 152q31 149 31 297v844h117v-844q0 -405 -134 -539q-47 -48 -85 -73q-81 -53 -282 -53h-48q-252 0 -326 52q-35 24 -80 72t-67 118q-56 172 -56 423z" />
    <glyph glyph-name="V" unicode="V" horiz-adv-x="1363" 
d="M102 1499h129l465 -1323l488 1323h127l-553 -1499h-125z" />
    <glyph glyph-name="W" unicode="W" horiz-adv-x="1976" 
d="M102 1499h129l463 -1309l416 1309h131l-164 -526l295 -791l424 1317h127l-485 -1499h-125l-297 780l-258 -780h-125z" />
    <glyph glyph-name="X" unicode="X" horiz-adv-x="1198" 
d="M102 1499h131l388 -655l393 655h131l-447 -745l437 -754h-131l-383 651l-381 -651h-131l436 754z" />
    <glyph glyph-name="Y" unicode="Y" horiz-adv-x="1282" 
d="M705 0h-117v532l-486 967h129l414 -825l457 825h127l-524 -967v-532z" />
    <glyph glyph-name="Z" unicode="Z" horiz-adv-x="1142" 
d="M80 0v117l838 1265h-838v117h989v-117l-838 -1265h838v-117h-989z" />
    <glyph glyph-name="bracketleft" unicode="[" horiz-adv-x="661" 
d="M195 -78v1450q0 147 47 223q74 129 231 129h143v-116h-143q-74 0 -118 -62t-44 -174v-1450q0 -106 42 -171t120 -64h143v-117h-143q-144 0 -211 95t-67 257z" />
    <glyph glyph-name="backslash" unicode="\" horiz-adv-x="786" 
d="M45 1577h121l575 -1724h-120z" />
    <glyph glyph-name="bracketright" unicode="]" horiz-adv-x="661" 
d="M45 -313h143q80 1 121 65t41 170v1450q0 113 -43 174t-119 62h-143v116h143q72 0 125 -26q154 -74 154 -326v-1450q0 -253 -154 -326q-53 -26 -125 -26h-143v117z" />
    <glyph glyph-name="asciicircum" unicode="^" horiz-adv-x="813" 
d="M115 1087l250 267h110l223 -267h-108l-172 177l-193 -177h-110z" />
    <glyph glyph-name="underscore" unicode="_" horiz-adv-x="1368" 
d="M45 -2v117h1278v-117h-1278z" />
    <glyph glyph-name="grave" unicode="`" horiz-adv-x="466" 
d="M45 1360h148l229 -273h-105z" />
    <glyph glyph-name="a" unicode="a" horiz-adv-x="1062" 
d="M209 268q0 -86 44 -125q45 -39 101 -39q150 0 447 99l33 12v352l-469 -28q-156 -10 -156 -164v-107zM92 258v125q0 169 127 240q61 33 146 32q469 -2 469 0q2 135 0 138q0 203 -203 202q-170 0 -504 -32v84q217 59 510 61q137 2 225 -77t88 -238v-793h-86l-30 131
q-2 0 -77 -34t-139 -57q-304 -111 -448 19q-78 72 -78 199z" />
    <glyph glyph-name="b" unicode="b" horiz-adv-x="1132" 
d="M653 987q-186 0 -401 -55v-727q227 -100 401 -101q115 0 183 110t68 350q-2 334 -150 404q-42 20 -101 19zM137 0v1608h113v-586q92 38 210 60t194 22q151 0 233 -85q80 -86 106 -213q27 -127 27 -285t-35 -259q-35 -100 -75 -153q-91 -121 -257 -121q-94 0 -223 47
t-178 86l-33 -121h-82z" />
    <glyph glyph-name="c" unicode="c" horiz-adv-x="1024" 
d="M257 1040q48 35 97 46q167 37 566 -42v-81q-264 18 -373 18t-152 -5t-82 -45q-38 -40 -59 -132t-22 -262q-1 -171 28 -267t79 -130t134 -34q177 0 387 23l74 6v-86q-199 -55 -461 -59q-68 0 -117 11t-97 47q-144 108 -144 498t142 494z" />
    <glyph glyph-name="d" unicode="d" horiz-adv-x="1132" 
d="M479 104q174 0 402 101v727q-215 55 -402 55q-148 0 -198 -122t-50 -334q0 -211 67 -319t181 -108zM483 -12q-368 0 -368 561q0 298 102 437q39 52 106 85t149 33t201 -23q118 -23 210 -59v586h112v-1608h-80l-34 121q-47 -39 -177 -86t-221 -47z" />
    <glyph glyph-name="e" unicode="e" horiz-adv-x="1075" 
d="M231 594h474q79 0 121 26t42 106t-13 131q-13 52 -52 80t-88 35t-165 7q-189 0 -244 -58t-67 -173q-8 -64 -8 -154zM115 502q0 168 10 255q18 157 94 247q82 92 350 92q192 0 270 -37q77 -37 111 -126q35 -89 35 -195q0 -107 -31 -158q-61 -101 -249 -101h-474
q0 -284 104 -345q48 -28 138 -28q303 0 492 27v-86q-207 -59 -492 -57q-141 0 -218 54q-140 98 -140 458z" />
    <glyph glyph-name="f" unicode="f" horiz-adv-x="806" 
d="M45 971v86l193 30v203q0 172 56 246t175 74q160 0 293 -41v-74h-264q-97 4 -120 -54q-24 -58 -24 -151v-203h324v-116h-324v-971h-116v971h-193z" />
    <glyph glyph-name="g" unicode="g" horiz-adv-x="1146" 
d="M457 975q-129 1 -181 -73t-51 -194t55 -195t169 -75h202q66 0 114 26q122 66 118 241q-2 135 -50 203t-153 67h-223zM338 41q-76 0 -117 31v-310q0 -126 70 -162t137 -36h307q190 0 191 192v115q0 84 -38 127t-138 43h-412zM109 240q0 55 36 102q37 47 103 57
q-139 74 -139 306q0 387 354 387h639v-86l-187 -31q1 -1 13 -17t16 -23t15 -25q40 -67 40 -180q0 -293 -190 -380q-63 -29 -147 -28h-320q-59 0 -88 -24t-29 -61q0 -38 34 -60t77 -21h432q131 0 203 -75t71 -204v-121q0 -134 -54 -203t-120 -88q-67 -18 -133 -18h-307
q-201 0 -284 141q-42 72 -42 174v181l64 161q-57 44 -57 136z" />
    <glyph glyph-name="h" unicode="h" 
d="M137 0v1606h117v-645q78 47 129 73q145 72 268 72t201 -50q154 -99 154 -298v-758h-117v758q1 109 -59 170t-151 61t-161 -15t-121 -37t-143 -67v-870h-117z" />
    <glyph glyph-name="i" unicode="i" horiz-adv-x="382" 
d="M131 0v1087h117v-1087h-117zM156 1227q-41 0 -41 41v114q0 43 41 43h75q39 0 39 -43v-114q0 -41 -39 -41h-75z" />
    <glyph glyph-name="j" unicode="j" horiz-adv-x="430" 
d="M156 -553v1640h116v-1095q4 -356 -41 -545h-75zM137 1268v114q0 43 41 43h76q39 0 39 -43v-114q0 -41 -39 -41h-76q-23 1 -32 15t-9 26z" />
    <glyph glyph-name="k" unicode="k" horiz-adv-x="1021" 
d="M137 0v1602h117v-918h96l461 403h166l-516 -462l516 -625h-150l-477 565h-96v-565h-117z" />
    <glyph glyph-name="l" unicode="l" horiz-adv-x="612" 
d="M137 387v1217h117v-1217q0 -160 42 -209q42 -50 99 -61q158 -37 172 -37v-80h-166q-264 0 -264 387z" />
    <glyph glyph-name="m" unicode="m" horiz-adv-x="1861" 
d="M137 0v1087h80l37 -129q80 47 127 72q47 24 125 48t166 24t170 -44q80 -44 116 -118q86 70 208 116t257 46t229 -100t95 -250v-752h-117v752q0 102 -60 168t-150 66q-176 -1 -299 -55q-65 -28 -134 -71q10 -27 10 -104v-756h-116v752q1 102 -61 168t-152 66
q-155 -1 -273 -52q-49 -20 -141 -68v-866h-117z" />
    <glyph glyph-name="n" unicode="n" 
d="M137 0v1087h80l37 -126q78 47 129 73q145 72 268 72t201 -50q154 -99 154 -298v-758h-117v758q-1 106 -61 168t-150 63q-90 0 -160 -15t-121 -37t-143 -67v-870h-117z" />
    <glyph glyph-name="o" unicode="o" horiz-adv-x="1165" 
d="M322 173q49 -43 105 -54t138 -12q136 -2 213 25q76 27 117 115t41 235q0 251 -39 344q-20 50 -46 81q-62 74 -268 74q-129 1 -184 -19t-81 -50q-87 -100 -87 -381q0 -282 91 -358zM115 564q0 386 191 484q99 50 278 50q266 0 367 -126t101 -436t-100 -428
q-102 -118 -368 -118q-139 0 -229 28q-175 56 -219 260q-22 98 -21 286z" />
    <glyph glyph-name="p" unicode="p" horiz-adv-x="1132" 
d="M653 983q-174 0 -401 -100v-727q215 -55 401 -56q116 0 183 93t67 332q1 239 -67 349t-183 109zM137 -551v1638h82l33 -120q77 61 250 108q88 25 162 25t141 -34q117 -60 166 -201t49 -274q0 -134 -8 -209q-19 -177 -103 -288q-84 -112 -256 -110q-111 0 -225 28
q-115 28 -178 54v-617h-113z" />
    <glyph glyph-name="q" unicode="q" horiz-adv-x="1138" 
d="M231 549q0 -270 66 -362q66 -91 186 -91q119 0 195 12t207 44v831h-393q-261 0 -261 -434zM115 549q0 264 94 407q95 144 279 144t288 -12t159 -20q56 -7 66 -7v-1614h-116v612q-92 -37 -205 -59q-333 -63 -457 86q-108 129 -108 463z" />
    <glyph glyph-name="r" unicode="r" horiz-adv-x="870" 
d="M137 0v1087h80l37 -137q26 13 84 46q58 34 69 38t39 18t42 17q15 3 59 17t142 14t136 -17v-114q-57 12 -117 12t-84 -2t-42 -3t-44 -8q-26 -6 -38 -8t-41 -13t-37 -14t-41 -17t-38 -18q-5 -3 -44 -21t-45 -21v-856h-117z" />
    <glyph glyph-name="s" unicode="s" horiz-adv-x="1034" 
d="M92 737v94q0 131 65 199t243 68t489 -29v-86h-514q-102 0 -134 -36t-32 -116v-94q0 -100 40 -118q40 -19 126 -19h303q126 0 196 -69t70 -185v-100q0 -161 -86 -213q-71 -43 -160 -43q-90 0 -292 12t-269 21v83h570q7 0 35 8q84 23 85 132v100q0 137 -149 137h-303
q-155 0 -219 51t-64 203z" />
    <glyph glyph-name="t" unicode="t" horiz-adv-x="753" 
d="M45 973v86l193 31l30 303h86v-303h332v-117h-332v-586q0 -204 90 -253q20 -12 115 -32t109 -20v-82h-166q-264 0 -264 387v586h-193z" />
    <glyph glyph-name="u" unicode="u" 
d="M115 330v757h116v-757q1 -106 61 -168t170 -64q110 0 191 27t213 94v868h117v-1087h-80l-37 127q-78 -45 -129 -72t-130 -51t-156 -22q-156 0 -246 102t-90 246z" />
    <glyph glyph-name="v" unicode="v" horiz-adv-x="1085" 
d="M45 1087h127l369 -917l374 917h125l-442 -1087h-119z" />
    <glyph glyph-name="w" unicode="w" horiz-adv-x="1624" 
d="M45 1087h129l348 -917l318 917h127l-125 -368l252 -549l358 917h127l-422 -1087h-119l-254 563l-198 -563h-127z" />
    <glyph glyph-name="x" unicode="x" horiz-adv-x="1042" 
d="M55 0l394 545l-394 542h146l317 -444l324 444h145l-395 -546l385 -541h-135l-320 442l-321 -442h-146z" />
    <glyph glyph-name="y" unicode="y" horiz-adv-x="1116" 
d="M47 1087h129l277 -849q43 -125 141 -119l18 2l326 966h129l-479 -1431l-133 -209h-70l186 553q-176 2 -243 225z" />
    <glyph glyph-name="z" unicode="z" horiz-adv-x="946" 
d="M68 971v116h811v-116l-627 -852h627v-117h-779v117l633 852h-665z" />
    <glyph glyph-name="braceleft" unicode="{" horiz-adv-x="643" 
d="M229 860v483q0 156 82 264q41 54 115 86t172 31v-116q-186 0 -233 -135q-18 -53 -19 -130v-483q0 -72 -47 -118t-123 -58q72 -10 120 -58t48 -112v-592q0 -123 67 -181t187 -54v-117q-152 0 -233 57q-138 95 -138 295v584q0 63 -56 95t-126 28v108q33 4 47 5
q137 10 137 118z" />
    <glyph glyph-name="bar" unicode="|" horiz-adv-x="507" 
d="M197 -147v1724h116v-1724h-116z" />
    <glyph glyph-name="braceright" unicode="}" horiz-adv-x="643" 
d="M299 -78v592q0 64 48 112t120 58q-74 12 -122 58t-48 118v483q0 145 -66 205t-186 60v116q197 0 282 -109t87 -272v-483q0 -102 138 -118q13 -2 46 -5v-108q-68 4 -125 -28t-57 -95v-584q0 -136 -69 -234q-83 -118 -302 -118v117q254 -8 254 235z" />
    <glyph glyph-name="asciitilde" unicode="~" horiz-adv-x="919" 
d="M571 1206q79 0 169 66q28 20 34 24l33 -61l-30 -30q-24 -24 -35 -33l-33 -27q-65 -51 -122 -51q-56 0 -132 49t-112 49q-37 0 -65 -10t-70 -36t-63 -36l-30 61q48 40 67 58q18 17 40 33t38 23t40 13t58 6t108 -48q75 -50 105 -50z" />
    <glyph glyph-name="exclamdown" unicode="&#xa1;" horiz-adv-x="548" 
d="M203 -553l10 1092h111l14 -1092h-135zM190 791v114q0 37 41 39h74q17 -2 29 -13t12 -30v-110q-4 -45 -39 -46h-76q-41 1 -41 46z" />
    <glyph glyph-name="cent" unicode="&#xa2;" horiz-adv-x="1001" 
d="M483 1288h95v-194q160 -16 319 -50v-81q-263 20 -379 20t-149 -7t-66 -33q-94 -74 -94 -402t107 -403q50 -34 156 -34t366 21l73 8v-86q-160 -47 -333 -55v-178h-95v174q-78 -2 -131 8q-132 25 -196 145t-64 401t69 412q32 62 84 96t106 43t132 7v188z" />
    <glyph glyph-name="sterling" unicode="&#xa3;" horiz-adv-x="1222" 
d="M115 0v90l147 27v573h-147v70l147 28v246q0 175 39 268t84 123q73 49 152 61q80 13 177 13q96 0 326 -20l70 -9v-86h-377q-224 0 -279 -54t-65 -133q-10 -78 -10 -163v-246l569 -28v-70h-569v-573h729v-117h-993z" />
    <glyph glyph-name="currency" unicode="&#xa4;" horiz-adv-x="944" 
d="M225 657q0 -84 31 -142t87 -93t123 -35t123 35t88 93t32 126t-33 123t-88 87t-138 32t-154 -71t-71 -155zM468 971q116 0 206 -72l96 94l55 -61l-94 -94q63 -84 63 -197t-65 -203l98 -98l-65 -57l-90 92q-90 -76 -205 -76t-201 74l-92 -90l-55 63l88 86q-68 92 -68 208
t68 204l-90 92l61 55l86 -90q88 70 204 70z" />
    <glyph glyph-name="yen" unicode="&#xa5;" horiz-adv-x="1216" 
d="M1036 657v-90h-389v-133h389v-90h-389v-344h-117v344h-368v90h368v133h-368v90h366l-483 842h131l412 -725l450 725h133l-522 -842h387z" />
    <glyph glyph-name="brokenbar" unicode="&#xa6;" horiz-adv-x="509" 
d="M197 879v698h116v-698h-116zM197 -147v671h116v-671h-116z" />
    <glyph glyph-name="section" unicode="&#xa7;" horiz-adv-x="1134" 
d="M242 723q0 -80 30 -99t119 -20h346q131 0 147 50q7 22 7 71v127q0 74 -28 100t-126 27h-346q-88 0 -119 -23t-30 -108v-125zM127 723v127q0 82 21 129q22 47 77 61q-100 25 -100 168v144q0 147 79 199q79 53 168 54t291 -11t269 -21v-84h-541q-75 0 -111 -33t-38 -104
v-144q0 -66 39 -90t110 -24h346q164 0 219 -58t54 -184v-127q0 -170 -92 -182q61 -12 75 -61q15 -49 15 -107v-150q0 -177 -127 -221q-59 -20 -141 -20t-276 12t-263 20v84h524q82 0 124 26t42 99v150q0 49 -13 73t-44 31q-31 8 -97 8h-346q-125 0 -194 43q-70 43 -70 193z
" />
    <glyph glyph-name="dieresis" unicode="&#xa8;" horiz-adv-x="911" 
d="M637 1192q-1 32 23 56t58 24t56 -24t23 -58q0 -34 -23 -56q-22 -24 -56 -24t-58 24t-23 58zM202 1272q28 0 50 -24t22 -63t-38 -63q-18 -12 -46 -12t-52 24t-23 53q0 28 11 46q12 19 30 29t46 10z" />
    <glyph glyph-name="copyright" unicode="&#xa9;" horiz-adv-x="1697" 
d="M773 1194q124 0 372 -45v-76q-172 25 -365 25q-199 0 -198 -357q0 -109 16 -181t62 -117q46 -46 120 -46q197 0 377 33v-76q-186 -53 -377 -53q-126 0 -211 91q-84 91 -84 342t86 362q78 98 202 98zM1143 1403h-543q-375 0 -379 -649q0 -244 90 -442q45 -97 120 -156
t169 -60h543q145 2 239 172t95 486q0 649 -334 649zM125 764q0 368 138 570q50 73 137 119t200 46h543q430 0 430 -745q0 -394 -145 -602q-48 -70 -122 -111t-163 -41h-543q-106 0 -192 52t-138 133q-51 81 -85 186q-60 183 -60 393z" />
    <glyph glyph-name="ordfeminine" unicode="&#xaa;" horiz-adv-x="741" 
d="M164 969q0 -109 121 -109q55 0 128 20t117 38l45 20v221l-290 -16q-121 -8 -121 -113v-61zM670 1303v-529h-62l-30 100q-2 0 -24 -12t-116 -54q-95 -42 -173 -42q-77 0 -137 48t-60 134v94q0 117 96 162q47 23 108 23q303 -2 303 0q2 63 0 65q0 131 -157 131
q-94 0 -326 -20v63q211 47 328 48q116 1 183 -52t67 -159zM68 565v88h606v-88h-606z" />
    <glyph glyph-name="guillemotleft" unicode="&#xab;" horiz-adv-x="1122" 
d="M494 725l421 416l82 -82l-340 -334l353 -344l-84 -82zM115 725l420 416l83 -82l-339 -334l350 -344l-82 -82z" />
    <glyph glyph-name="logicalnot" unicode="&#xac;" horiz-adv-x="1081" 
d="M115 541v118h854v-333h-117v215h-737z" />
    <glyph glyph-name="uni00AD" unicode="&#xad;" horiz-adv-x="733" 
d="M45 537v114h643v-114h-643z" />
    <glyph glyph-name="registered" unicode="&#xae;" horiz-adv-x="1697" 
d="M647 762h279q92 0 126 33t33 131q0 98 -43 132t-116 34h-279v-330zM551 313v875h362q269 0 269 -260q0 -111 -42 -172q-20 -29 -37 -39t-30 -20t-56 -15q-43 -6 -42 -8l199 -361h-109l-201 363l-217 20v-383h-96zM1143 1403h-543q-375 0 -379 -649q0 -244 90 -442
q45 -97 120 -156t169 -60h543q145 2 239 172t95 486q0 649 -334 649zM125 764q0 368 138 570q50 73 137 119t200 46h543q430 0 430 -745q0 -394 -145 -602q-48 -70 -122 -111t-163 -41h-543q-106 0 -192 52t-138 133q-51 81 -85 186q-60 183 -60 393z" />
    <glyph glyph-name="macron" unicode="&#xaf;" horiz-adv-x="798" 
d="M115 1087v97h571v-97h-571z" />
    <glyph glyph-name="degree" unicode="&#xb0;" horiz-adv-x="643" 
d="M188 1294q0 -55 40 -94t96 -39t94 39q39 39 39 94q0 56 -39 96t-94 40t-96 -40q-40 -41 -40 -96zM115 1294q1 58 29 106t76 77t104 29t104 -30q47 -28 75 -76q27 -48 27 -121t-60 -133t-130 -60q-133 -1 -197 103q-28 48 -28 105z" />
    <glyph glyph-name="plusminus" unicode="&#xb1;" horiz-adv-x="1083" 
d="M129 809v117h356v358h117v-358h359v-117h-359v-356h-117v356h-356zM129 213v117h832v-117h-832z" />
    <glyph glyph-name="twosuperior" unicode="&#xb2;" horiz-adv-x="808" 
d="M72 1688q-2 0 -2 18t2 53q209 25 374 25q266 0 267 -279q0 -242 -443 -600q-10 -8 -14 -12h455v-96h-633v88q262 196 370 315t137 186q28 66 27 113q0 96 -40 142t-144 47h-356z" />
    <glyph glyph-name="threesuperior" unicode="&#xb3;" horiz-adv-x="851" 
d="M345 788q-162 0 -269 33l2 62l362 2q98 0 139 35q40 35 39 120v47q0 78 -49 116t-120 40l-291 10v70l291 12q81 4 127 42t47 104v53q0 145 -168 145h-387v64q93 31 210 31h191q125 0 186 -67t62 -169v-72q0 -70 -40 -118t-85 -64q125 -61 125 -194v-58q0 -182 -133 -226
q-51 -18 -129 -18h-110z" />
    <glyph glyph-name="acute" unicode="&#xb4;" horiz-adv-x="466" 
d="M45 1087l229 273h148l-272 -273h-105z" />
    <glyph glyph-name="uni00B5" unicode="&#xb5;" horiz-adv-x="1232" 
d="M207 -553v1640h117v-757q0 -106 59 -168t168 -64q109 0 191 27t216 94v868h117v-1087h-80l-37 127q-122 -70 -209 -108q-88 -37 -214 -37q-127 0 -211 88v-623h-117z" />
    <glyph glyph-name="paragraph" unicode="&#xb6;" horiz-adv-x="1181" 
d="M209 1026q0 -139 145 -175q29 -7 58 -7h110v538h-110q-70 0 -118 -26q-85 -47 -85 -148v-182zM412 727q-152 0 -236 84t-84 211v190q0 137 95 212t225 75h727v-121h-142v-1378h-116v1382h-242v-1935h-117v1311q-52 -31 -110 -31z" />
    <glyph glyph-name="periodcentered" unicode="&#xb7;" horiz-adv-x="550" 
d="M195 739v86q0 43 41 43h79q41 0 41 -43v-86q0 -39 -41 -39h-79q-28 0 -38 24q-3 7 -3 15z" />
    <glyph glyph-name="cedilla" unicode="&#xb8;" horiz-adv-x="526" 
d="M412 -76q0 -153 -42 -217q-24 -35 -63 -48t-102 -13h-90v55l94 23q55 16 78 61t22 139h103z" />
    <glyph glyph-name="onesuperior" unicode="&#xb9;" horiz-adv-x="542" 
d="M395 1772v-975h-96v868l-262 -78v72l262 113h96z" />
    <glyph glyph-name="ordmasculine" unicode="&#xba;" horiz-adv-x="790" 
d="M164 1132q0 -94 12 -148t45 -82t72 -36t107 -8t104 7t68 34t43 81t13 149q3 189 -51 239q-32 29 -70 38t-110 9q-73 0 -109 -7t-69 -36q-33 -30 -44 -88t-11 -152zM92 569v86h610v-86h-610zM398 1509q194 0 260 -81t65 -293q0 -211 -68 -291q-69 -80 -259 -80t-259 80
t-69 292q0 211 68 292t262 81z" />
    <glyph glyph-name="guillemotright" unicode="&#xbb;" horiz-adv-x="1122" 
d="M494 381l352 344l-340 334l82 82l422 -416l-432 -426zM115 381l352 344l-342 334l82 82l422 -416l-430 -426z" />
    <glyph glyph-name="onequarter" unicode="&#xbc;" horiz-adv-x="1828" 
d="M1567 379v248l43 98h53v-346h121v-76l-121 -27v-276h-96v276h-529l-32 41l413 654h111l-373 -592h410zM444 0l740 1526h100l-739 -1526h-101zM395 1499v-975h-96v869l-262 -78v71l262 113h96z" />
    <glyph glyph-name="onehalf" unicode="&#xbd;" horiz-adv-x="1972" 
d="M1239 891q-2 0 -2 19t2 53q209 25 375 24q266 0 266 -278q0 -240 -442 -600q-10 -8 -15 -13h455v-96h-633v88q10 8 86 68q257 201 353 325t96 220q0 97 -40 143t-145 47h-356zM430 0l737 1526h101l-738 -1526h-100zM395 1499v-975h-96v869l-262 -78v71l262 113h96z" />
    <glyph glyph-name="threequarters" unicode="&#xbe;" horiz-adv-x="2072" 
d="M1743 375v252l41 98h51v-350h121v-72l-121 -24v-279h-92v279h-533l-32 38l413 654h105l-373 -596h420zM662 0l739 1526h100l-739 -1526h-100zM345 516q-170 0 -269 33l2 61l362 2q98 0 139 35q40 35 39 121v47q0 78 -49 116t-120 40l-291 10v70l291 12q81 4 127 42
t47 103v54q0 145 -168 145h-387v63q93 31 210 31h191q125 -1 186 -67t62 -168v-72q0 -70 -40 -119t-85 -63q125 -61 125 -195v-57q0 -182 -133 -226q-51 -18 -129 -18h-110z" />
    <glyph glyph-name="questiondown" unicode="&#xbf;" horiz-adv-x="1101" 
d="M586 920q0 38 39 45h75q41 -2 41 -41v-115q-4 -41 -36 -43h-84q-33 8 -35 43v111zM604 551q0 12 -2 14h123l2 -303q-178 2 -275 0q-98 -2 -160 -63t-67 -166q-2 -178 -2 -207q0 -121 70 -191t221 -67l545 2q-2 0 -2 -23v-41q0 -18 -2 -20q-332 -41 -557 -35
q-242 -4 -331 117q-75 102 -77 266v209q-2 184 135 265t377 50v12l2 69v112z" />
    <glyph glyph-name="Agrave" unicode="&#xc0;" horiz-adv-x="1363" 
d="M442 569h543l-266 760zM102 0l555 1499h125l529 -1499h-137l-148 453h-627l-155 -453h-142zM395 1905h148l227 -273h-102z" />
    <glyph glyph-name="Aacute" unicode="&#xc1;" horiz-adv-x="1363" 
d="M442 569h543l-266 760zM102 0l555 1499h125l529 -1499h-137l-148 453h-627l-155 -453h-142zM668 1632l229 273h145l-272 -273h-102z" />
    <glyph glyph-name="Acircumflex" unicode="&#xc2;" horiz-adv-x="1363" 
d="M442 569h543l-266 760zM102 0l555 1499h125l529 -1499h-137l-148 453h-627l-155 -453h-142zM428 1632l250 266h108l226 -266h-109l-174 176l-192 -176h-109z" />
    <glyph glyph-name="Atilde" unicode="&#xc3;" horiz-adv-x="1363" 
d="M442 569h543l-266 760zM102 0l555 1499h125l529 -1499h-137l-148 453h-627l-155 -453h-142zM373 1710q31 25 47 38q110 89 168 88q59 -1 104 -26q45 -24 84 -48t66 -23t47 8q19 8 31 12t48 27t64 37l33 -62q-4 -4 -28 -23q-25 -18 -33 -26q-64 -56 -131 -74
q-68 -17 -152 37q-84 55 -120 55q-35 0 -65 -10q-30 -12 -70 -37t-60 -34z" />
    <glyph glyph-name="Adieresis" unicode="&#xc4;" horiz-adv-x="1363" 
d="M442 569h543l-266 760zM102 0l555 1499h125l529 -1499h-137l-148 453h-627l-155 -453h-142zM987 1794q29 0 51 -24t23 -58q0 -34 -24 -56q-25 -24 -57 -24t-56 24t-25 52q0 29 11 46q12 16 30 28t47 12zM379 1713q-1 33 23 57t58 24t56 -24t23 -52q-1 -28 -11 -45
q-23 -39 -62 -40q-40 -1 -64 23t-23 57z" />
    <glyph glyph-name="Aring" unicode="&#xc5;" horiz-adv-x="1363" 
d="M442 569h543l-266 760zM512 1719q0 73 61 134t133 61t119 -27q47 -28 75 -77q28 -50 28 -122t-53 -125t-111 -64h18l529 -1499h-137l-148 453h-627l-155 -453h-142l555 1499h21q-33 7 -63 24q-103 60 -103 196zM586 1704q0 -55 40 -94t95 -39t94 39t39 94t-39 95t-94 40
t-95 -40t-40 -95z" />
    <glyph glyph-name="AE" unicode="&#xc6;" horiz-adv-x="1894" 
d="M924 600v739l-402 -739h402zM1798 1380h-618q-100 0 -120 -36t-20 -115v-430l676 -19v-88l-676 -18v-424q0 -68 27 -97t62 -33q35 -5 73 -5l594 -2v-93l-594 -28q-281 -20 -278 256v235h-463l-262 -483h-131l665 1227q75 143 152 203q76 60 187 68q40 3 108 1l618 -29
v-90z" />
    <glyph glyph-name="Ccedilla" unicode="&#xc7;" horiz-adv-x="1177" 
d="M625 -12q-500 0 -500 766q0 471 147 631q120 131 353 131q80 0 226 -16t253 -36v-88l-62 4q-30 2 -68 4t-83 6t-111 6q-66 3 -181 3t-195 -53q-162 -106 -162 -596q0 -645 383 -646q204 0 450 17l29 2v-90q-255 -45 -479 -45zM739 -74q0 -160 -42 -219t-165 -59h-90v55
l95 23q57 16 79 61t21 139h102z" />
    <glyph glyph-name="Egrave" unicode="&#xc8;" horiz-adv-x="1171" 
d="M184 252v981q0 141 73 206t185 60l633 -29v-88h-633q-80 0 -110 -38t-31 -111v-428l692 -17v-90l-692 -16v-430q0 -96 53 -122q39 -19 109 -19h612v-86l-612 -31q-206 -7 -256 120q-23 56 -23 138zM377 1894h147l228 -272h-103z" />
    <glyph glyph-name="Eacute" unicode="&#xc9;" horiz-adv-x="1171" 
d="M184 252v981q0 141 73 206t185 60l633 -29v-88h-633q-80 0 -110 -38t-31 -111v-428l692 -17v-90l-692 -16v-430q0 -96 53 -122q39 -19 109 -19h612v-86l-612 -31q-206 -7 -256 120q-23 56 -23 138zM618 1622l230 272h147l-272 -272h-105z" />
    <glyph glyph-name="Ecircumflex" unicode="&#xca;" horiz-adv-x="1171" 
d="M184 252v981q0 141 73 206t185 60l633 -29v-88h-633q-80 0 -110 -38t-31 -111v-428l692 -17v-90l-692 -16v-430q0 -96 53 -122q39 -19 109 -19h612v-86l-612 -31q-206 -7 -256 120q-23 56 -23 138zM369 1632l249 266h111l223 -266h-108l-174 176l-191 -176h-110z" />
    <glyph glyph-name="Edieresis" unicode="&#xcb;" horiz-adv-x="1171" 
d="M184 252v981q0 141 73 206t185 60l633 -29v-88h-633q-80 0 -110 -38t-31 -111v-428l692 -17v-90l-692 -16v-430q0 -96 53 -122q39 -19 109 -19h612v-86l-612 -31q-206 -7 -256 120q-23 56 -23 138zM834 1726q0 33 24 57q26 23 58 23t56 -24t24 -57t-24 -57t-57 -24
t-57 25q-24 24 -24 57zM386 1806q40 0 64 -24t24 -57t-24 -57t-57 -24t-57 25q-24 24 -23 52q0 28 11 46q22 39 62 39z" />
    <glyph glyph-name="Igrave" unicode="&#xcc;" horiz-adv-x="428" 
d="M184 0v1499h117v-1499h-117zM-82 1905h145l230 -273h-103z" />
    <glyph glyph-name="Iacute" unicode="&#xcd;" horiz-adv-x="428" 
d="M184 0v1499h117v-1499h-117zM190 1632l230 273h145l-272 -273h-103z" />
    <glyph glyph-name="Icircumflex" unicode="&#xce;" horiz-adv-x="428" 
d="M184 0v1499h117v-1499h-117zM-51 1632l252 266h108l226 -266h-109l-174 176l-193 -176h-110z" />
    <glyph glyph-name="Idieresis" unicode="&#xcf;" horiz-adv-x="428" 
d="M184 0v1499h117v-1499h-117zM422 1713q0 33 24 57t57 24t57 -24t24 -58t-24 -56q-24 -24 -58 -24t-56 24q-24 24 -24 57zM-100 1713q0 33 24 57t57 24t57 -24t24 -58t-24 -56q-24 -24 -58 -24t-56 24q-24 24 -24 57z" />
    <glyph glyph-name="Eth" unicode="&#xd0;" horiz-adv-x="1353" 
d="M301 121h420q106 0 188 53t129 143q94 180 92 428q0 324 -106 478t-303 153l-420 -2v-569h297v-82h-297v-602zM51 723v82h133v692q0 2 537 2q272 0 401 -197t129 -559q0 -180 -38 -304q-39 -123 -81 -195q-145 -244 -411 -244h-537v723h-133z" />
    <glyph glyph-name="Ntilde" unicode="&#xd1;" horiz-adv-x="1380" 
d="M184 0v1499h119l834 -1280v1280h116v-1499h-116l-836 1280v-1280h-117zM734 1786q77 -47 104 -47t48 8q22 8 34 12t32 17t47 28q27 16 31 19l35 -62q-30 -21 -50 -39q-99 -93 -193 -89q-40 1 -153 74q-36 24 -66 24t-58 -9t-75 -36q-46 -27 -67 -37l-30 61
q153 129 233 127q51 -4 128 -51z" />
    <glyph glyph-name="Ograve" unicode="&#xd2;" horiz-adv-x="1382" 
d="M323 1193q-57 -126 -57 -410t27 -404q27 -121 106 -196q78 -74 320 -74q106 0 175 13q157 30 217 168q60 139 60 457q0 317 -47 432t-104 155q-58 40 -133 49q-75 10 -164 10q-90 0 -137 -4q-46 -5 -108 -23t-93 -60t-62 -113zM258 159q-108 150 -108 580t115 598
q40 57 83 90t129 57t207 25q121 0 180 -6q152 -16 229 -76q104 -82 150 -245q45 -163 45 -385q0 -223 -16 -343q-29 -215 -129 -336q-78 -95 -253 -117q-71 -9 -164 -9q-92 0 -154 5q-157 13 -233 75q-42 33 -81 87zM395 1905h148l229 -273h-104z" />
    <glyph glyph-name="Oacute" unicode="&#xd3;" horiz-adv-x="1382" 
d="M323 1193q-57 -126 -57 -410t27 -404q27 -121 106 -196q78 -74 320 -74q106 0 175 13q157 30 217 168q60 139 60 457q0 317 -47 432t-104 155q-58 40 -133 49q-75 10 -164 10q-90 0 -137 -4q-46 -5 -108 -23t-93 -60t-62 -113zM258 159q-108 150 -108 580t115 598
q40 57 83 90t129 57t207 25q121 0 180 -6q152 -16 229 -76q104 -82 150 -245q45 -163 45 -385q0 -223 -16 -343q-29 -215 -129 -336q-78 -95 -253 -117q-71 -9 -164 -9q-92 0 -154 5q-157 13 -233 75q-42 33 -81 87zM668 1632l229 273h147l-272 -273h-104z" />
    <glyph glyph-name="Ocircumflex" unicode="&#xd4;" horiz-adv-x="1382" 
d="M323 1193q-57 -126 -57 -410t27 -404q27 -121 106 -196q78 -74 320 -74q106 0 175 13q157 30 217 168q60 139 60 457q0 317 -47 432t-104 155q-58 40 -133 49q-75 10 -164 10q-90 0 -137 -4q-46 -5 -108 -23t-93 -60t-62 -113zM258 159q-108 150 -108 580t115 598
q40 57 83 90t129 57t207 25q121 0 180 -6q152 -16 229 -76q104 -82 150 -245q45 -163 45 -385q0 -223 -16 -343q-29 -215 -129 -336q-78 -95 -253 -117q-71 -9 -164 -9q-92 0 -154 5q-157 13 -233 75q-42 33 -81 87zM428 1632l250 266h110l224 -266h-109l-174 176l-192 -176
h-109z" />
    <glyph glyph-name="Otilde" unicode="&#xd5;" horiz-adv-x="1382" 
d="M323 1193q-57 -126 -57 -410t27 -404q27 -121 106 -196q78 -74 320 -74q106 0 175 13q157 30 217 168q60 139 60 457q0 317 -47 432t-104 155q-58 40 -133 49q-75 10 -164 10q-90 0 -137 -4q-46 -5 -108 -23t-93 -60t-62 -113zM258 159q-108 150 -108 580t115 598
q40 57 83 90t129 57t207 25q121 0 180 -6q152 -16 229 -76q104 -82 150 -245q45 -163 45 -385q0 -223 -16 -343q-29 -215 -129 -336q-78 -95 -253 -117q-71 -9 -164 -9q-92 0 -154 5q-157 13 -233 75q-42 33 -81 87zM373 1710q153 129 233 127q41 -2 86 -27q45 -24 84 -48
t66 -23t47 8q19 8 31 12t48 27t64 37l33 -62q-4 -4 -28 -23q-25 -18 -33 -26q-92 -82 -176 -79q-53 2 -119 49q-65 47 -105 48q-40 2 -68 -10q-30 -12 -70 -37t-60 -34z" />
    <glyph glyph-name="Odieresis" unicode="&#xd6;" horiz-adv-x="1382" 
d="M323 1193q-57 -126 -57 -410t27 -404q27 -121 106 -196q78 -74 320 -74q106 0 175 13q157 30 217 168q60 139 60 457q0 317 -47 432t-104 155q-58 40 -133 49q-75 10 -164 10q-90 0 -137 -4q-46 -5 -108 -23t-93 -60t-62 -113zM258 159q-108 150 -108 580t115 598
q40 57 83 90t129 57t207 25q121 0 180 -6q152 -16 229 -76q104 -82 150 -245q45 -163 45 -385q0 -223 -16 -343q-29 -215 -129 -336q-78 -95 -253 -117q-71 -9 -164 -9q-92 0 -154 5q-157 13 -233 75q-42 33 -81 87zM987 1794q29 0 51 -24t23 -58q0 -34 -23 -56
q-22 -24 -56 -24t-58 24t-25 52q0 29 11 46q12 16 30 28t47 12zM379 1713q-1 33 23 57t58 24t56 -24t23 -52q-1 -28 -11 -45q-23 -39 -62 -40q-40 -1 -64 23t-23 57z" />
    <glyph glyph-name="multiply" unicode="&#xd7;" horiz-adv-x="923" 
d="M129 477l252 250l-252 254l82 82l252 -252l254 252l82 -82l-254 -254l254 -250l-82 -84l-254 252l-250 -250z" />
    <glyph glyph-name="Oslash" unicode="&#xd8;" horiz-adv-x="1382" 
d="M1171 773q0 343 -84 482l-690 -1071q85 -75 322 -75q104 0 174 13q158 29 218 168q60 140 60 483zM266 739q0 -358 78 -489l690 1071q-51 45 -123 58t-176 13t-150 -3q-148 -13 -200 -83q-87 -118 -106 -296q-13 -113 -13 -271zM713 1509q139 0 229 -17t156 -71l51 78h94
l-88 -135q133 -170 133 -625q0 -330 -67 -487q-35 -82 -79 -134q-80 -95 -252 -117q-70 -9 -190 -9t-212 17t-156 69l-51 -78h-97l88 137q-122 162 -122 629t152 623q78 76 174 98q98 22 237 22z" />
    <glyph glyph-name="Ugrave" unicode="&#xd9;" horiz-adv-x="1390" 
d="M184 655v844h117v-844q0 -346 87 -446q34 -39 61 -59q59 -44 243 -44q183 0 226 16q92 36 125 84q58 85 71 152q31 149 31 297v844h117v-844q0 -405 -134 -539q-47 -48 -85 -73q-81 -53 -282 -53h-48q-252 0 -326 52q-35 24 -80 72t-67 118q-56 172 -56 423zM399 1905
h146l229 -273h-102z" />
    <glyph glyph-name="Uacute" unicode="&#xda;" horiz-adv-x="1390" 
d="M184 655v844h117v-844q0 -346 87 -446q34 -39 61 -59q59 -44 243 -44q183 0 226 16q92 36 125 84q58 85 71 152q31 149 31 297v844h117v-844q0 -405 -134 -539q-47 -48 -85 -73q-81 -53 -282 -53h-48q-252 0 -326 52q-35 24 -80 72t-67 118q-56 172 -56 423zM672 1632
l229 273h146l-273 -273h-102z" />
    <glyph glyph-name="Ucircumflex" unicode="&#xdb;" horiz-adv-x="1390" 
d="M184 655v844h117v-844q0 -346 87 -446q34 -39 61 -59q59 -44 243 -44q183 0 226 16q92 36 125 84q58 85 71 152q31 149 31 297v844h117v-844q0 -405 -134 -539q-47 -48 -85 -73q-81 -53 -282 -53h-48q-252 0 -326 52q-35 24 -80 72t-67 118q-56 172 -56 423zM430 1632
l250 266h111l225 -266h-109l-174 176l-192 -176h-111z" />
    <glyph glyph-name="Udieresis" unicode="&#xdc;" horiz-adv-x="1390" 
d="M184 655v844h117v-844q0 -346 87 -446q34 -39 61 -59q59 -44 243 -44q183 0 226 16q92 36 125 84q58 85 71 152q31 149 31 297v844h117v-844q0 -405 -134 -539q-47 -48 -85 -73q-81 -53 -282 -53h-48q-252 0 -326 52q-35 24 -80 72t-67 118q-56 172 -56 423zM990 1794
q28 0 52 -24t23 -58q0 -34 -24 -56q-23 -24 -57 -24t-58 24t-23 52q0 29 11 46q12 16 30 28t46 12zM381 1713q-1 33 23 57t58 24t58 -24t23 -58q0 -34 -24 -56q-23 -24 -57 -24t-58 24t-23 57z" />
    <glyph glyph-name="Yacute" unicode="&#xdd;" horiz-adv-x="1282" 
d="M705 0h-117v532l-486 967h129l414 -825l457 825h127l-524 -967v-532zM614 1632l230 273h145l-272 -273h-103z" />
    <glyph glyph-name="Thorn" unicode="&#xde;" horiz-adv-x="1136" 
d="M254 422h418q111 0 176 69t65 288t-117 280q-52 26 -124 26h-418v-663zM254 0h-117v1493h117v-289h418q360 -2 360 -436q0 -326 -169 -420q-77 -43 -151 -43h-182q-107 0 -276 33v-338z" />
    <glyph glyph-name="germandbls" unicode="&#xdf;" horiz-adv-x="1163" 
d="M1004 367q0 89 -163 118q-69 11 -137 29t-115 66q-48 48 -48 136q0 87 47 143t209 175q113 82 123 208t-84 179t-246 53t-244 -78q-92 -79 -92 -237v-1159h-117v1159q0 186 118 309t329 123q145 0 245 -37q101 -37 147 -96t59 -133q23 -134 -71 -281q-42 -63 -134 -130
t-124 -99q-32 -33 -40 -55t-8 -54t33 -57q34 -25 126 -41t162 -44q141 -57 141 -197v-97q0 -151 -98 -218q-98 -68 -240 -68t-340 36v91l361 -11q92 0 145 50t56 120v97z" />
    <glyph glyph-name="agrave" unicode="&#xe0;" horiz-adv-x="1062" 
d="M209 268q0 -86 44 -125q45 -39 101 -39q150 0 447 99l33 12v352l-469 -28q-156 -10 -156 -164v-107zM92 258v125q0 169 127 240q61 33 146 32q469 -2 469 0q2 135 0 138q0 203 -203 202q-170 0 -504 -32v84q217 59 510 61q137 2 225 -77t88 -238v-793h-86l-30 131
q-2 0 -77 -34t-139 -57q-304 -111 -448 19q-78 72 -78 199zM225 1503h146l229 -272h-102z" />
    <glyph glyph-name="aacute" unicode="&#xe1;" horiz-adv-x="1062" 
d="M209 268q0 -86 44 -125q45 -39 101 -39q150 0 447 99l33 12v352l-469 -28q-156 -10 -156 -164v-107zM92 258v125q0 169 127 240q61 33 146 32q469 -2 469 0q2 135 0 138q0 203 -203 202q-170 0 -504 -32v84q217 59 510 61q137 2 225 -77t88 -238v-793h-86l-30 131
q-2 0 -77 -34t-139 -57q-304 -111 -448 19q-78 72 -78 199zM487 1231l228 272h147l-272 -272h-103z" />
    <glyph glyph-name="acircumflex" unicode="&#xe2;" horiz-adv-x="1062" 
d="M209 268q0 -86 44 -125q45 -39 101 -39q150 0 447 99l33 12v352l-469 -28q-156 -10 -156 -164v-107zM92 258v125q0 169 127 240q61 33 146 32q469 -2 469 0q2 135 0 138q0 203 -203 202q-170 0 -504 -32v84q217 59 510 61q137 2 225 -77t88 -238v-793h-86l-30 131
q-2 0 -77 -34t-139 -57q-304 -111 -448 19q-78 72 -78 199zM250 1231l252 266h108l226 -266h-109l-174 176l-193 -176h-110z" />
    <glyph glyph-name="atilde" unicode="&#xe3;" horiz-adv-x="1062" 
d="M209 268q0 -86 44 -125q45 -39 101 -39q150 0 447 99l33 12v352l-469 -28q-156 -10 -156 -164v-107zM92 258v125q0 169 127 240q61 33 146 32q469 -2 469 0q2 135 0 138q0 203 -203 202q-170 0 -504 -32v84q217 59 510 61q137 2 225 -77t88 -238v-793h-86l-30 131
q-2 0 -77 -34t-139 -57q-304 -111 -448 19q-78 72 -78 199zM186 1315q51 43 79 65q79 61 155 62q51 -2 129 -50t96 -48q65 -2 146 52q8 5 28 17t25 17l35 -62q-22 -22 -85 -70q-64 -48 -95 -54q-31 -5 -68 -4t-109 49t-108 47q-66 -2 -121 -37q-55 -36 -76 -46z" />
    <glyph glyph-name="adieresis" unicode="&#xe4;" horiz-adv-x="1062" 
d="M209 268q0 -86 44 -125q45 -39 101 -39q150 0 447 99l33 12v352l-469 -28q-156 -10 -156 -164v-107zM92 258v125q0 169 127 240q61 33 146 32q469 -2 469 0q2 135 0 138q0 203 -203 202q-170 0 -504 -32v84q217 59 510 61q137 2 225 -77t88 -238v-793h-86l-30 131
q-2 0 -77 -34t-139 -57q-304 -111 -448 19q-78 72 -78 199zM721 1335q0 33 23 57q24 24 58 24t56 -24t23 -57q0 -33 -23 -57q-22 -24 -56 -25q-34 1 -58 25t-23 57zM199 1335q0 33 23 57q24 24 58 24t56 -24t22 -57t-22 -57t-56 -25q-34 1 -58 25t-23 57z" />
    <glyph glyph-name="aring" unicode="&#xe5;" horiz-adv-x="1062" 
d="M209 268q0 -86 44 -125q45 -39 101 -39q150 0 447 99l33 12v352l-469 -28q-156 -10 -156 -164v-107zM92 258v125q0 169 127 240q61 33 146 32q469 -2 469 0q2 135 0 138q0 203 -203 202q-170 0 -504 -32v84q217 59 510 61q137 2 225 -77t88 -238v-793h-86l-30 131
q-2 0 -77 -34t-139 -57q-304 -111 -448 19q-78 72 -78 199zM403 1378q0 -55 40 -94q41 -39 97 -39t95 39t39 94q0 56 -39 96t-94 40t-97 -40q-41 -41 -41 -96zM332 1385q0 51 28 99t75 77q49 29 105 29t104 -30q103 -61 101 -182q0 -88 -59 -148t-145 -61q-43 0 -82 17
q-78 32 -111 110q-16 38 -16 89z" />
    <glyph glyph-name="ae" unicode="&#xe6;" horiz-adv-x="1796" 
d="M952 610h471q84 0 124 26t40 90q0 130 -20 169t-48 62t-95 26q-66 4 -136 4t-112 -4q-111 -10 -158 -62q-47 -51 -57 -137q-9 -86 -9 -174zM209 276q0 -86 44 -124q45 -38 95 -39q179 0 467 108l19 6v303l-469 -26q-156 -8 -156 -164v-64zM911 965q77 139 333 139
q110 0 187 -4t118 -25q41 -22 71 -49q84 -74 84 -299q0 -119 -69 -175t-212 -56h-471q-6 -279 63 -335q54 -46 179 -46q295 -2 489 26v-86q-201 -57 -489 -57q-152 0 -219 45q-37 25 -55 43t-48 53l-34 -14q-229 -92 -325 -110q-96 -19 -148 -19q-117 0 -195 72t-78 198v74
q0 169 127 240q61 33 146 32q469 -2 469 0q2 186 0 189q0 201 -203 203q-164 0 -504 -33v84q193 57 510 61q201 4 274 -151z" />
    <glyph glyph-name="ccedilla" unicode="&#xe7;" horiz-adv-x="1024" 
d="M543 -74h102q0 -160 -43 -219t-164 -59h-90v53l94 25q55 16 78 61t23 139zM473 1100q164 0 447 -56v-81q-264 20 -380 20t-149 -7q-81 -17 -117 -107q-41 -110 -42 -307q-1 -198 28 -294t79 -130t158 -34t363 21l74 8v-86q-199 -57 -461 -59q-68 0 -117 11
q-113 25 -177 149t-64 395q0 272 61 395t179 151q50 11 118 11z" />
    <glyph glyph-name="egrave" unicode="&#xe8;" horiz-adv-x="1075" 
d="M231 594h474q79 0 121 26t42 106t-13 131q-13 52 -52 80t-88 35t-165 7q-189 0 -244 -58t-67 -173q-8 -64 -8 -154zM115 502q0 168 10 255q18 157 94 247q82 92 350 92q192 0 270 -37q77 -37 111 -126q35 -89 35 -215t-69 -182t-211 -57h-474q0 -284 104 -345
q48 -28 138 -28q303 0 492 27v-86q-207 -59 -492 -57q-141 0 -218 54q-140 98 -140 458zM256 1489h145l230 -272h-103z" />
    <glyph glyph-name="eacute" unicode="&#xe9;" horiz-adv-x="1075" 
d="M231 594h474q79 0 121 26t42 106t-13 131q-13 52 -52 80t-88 35t-165 7q-189 0 -244 -58t-67 -173q-8 -64 -8 -154zM115 502q0 168 10 255q18 157 94 247q82 92 350 92q192 0 270 -37q77 -37 111 -126q35 -89 35 -215t-69 -182t-211 -57h-474q0 -284 104 -345
q48 -28 138 -28q303 0 492 27v-86q-207 -59 -492 -57q-141 0 -218 54q-140 98 -140 458zM510 1217l229 272h148l-273 -272h-104z" />
    <glyph glyph-name="ecircumflex" unicode="&#xea;" horiz-adv-x="1075" 
d="M231 594h474q79 0 121 26t42 106t-13 131q-13 52 -52 80t-88 35t-165 7q-189 0 -244 -58t-67 -173q-8 -64 -8 -154zM115 502q0 168 10 255q18 157 94 247q82 92 350 92q192 0 270 -37q77 -37 111 -126q35 -89 35 -215t-69 -182t-211 -57h-474q0 -284 104 -345
q48 -28 138 -28q303 0 492 27v-86q-207 -59 -492 -57q-141 0 -218 54q-140 98 -140 458zM266 1217l250 266h111l225 -266h-109l-174 176l-192 -176h-111z" />
    <glyph glyph-name="edieresis" unicode="&#xeb;" horiz-adv-x="1075" 
d="M231 594h474q79 0 121 26t42 106t-13 131q-13 52 -52 80t-88 35t-165 7q-189 0 -244 -58t-67 -173q-8 -64 -8 -154zM115 502q0 168 10 255q18 157 94 247q82 92 350 92q192 0 270 -37q77 -37 111 -126q35 -89 35 -215t-69 -182t-211 -57h-474q0 -284 104 -345
q48 -28 138 -28q303 0 492 27v-86q-207 -59 -492 -57q-141 0 -218 54q-140 98 -140 458zM739 1322q0 34 25 56q26 22 58 23q32 0 56 -23q24 -22 24 -56t-24 -58t-57 -23q-33 -1 -57 23t-25 58zM304 1401q28 0 52 -23q24 -22 23 -56q0 -34 -24 -58q-25 -24 -57 -23
q-32 -1 -56 23t-23 52q0 28 10 46q11 18 29 28t46 11z" />
    <glyph glyph-name="igrave" unicode="&#xec;" horiz-adv-x="391" 
d="M137 0v1087h117v-1087h-117zM-129 1493h147l230 -272h-105z" />
    <glyph glyph-name="iacute" unicode="&#xed;" horiz-adv-x="391" 
d="M137 0v1087h117v-1087h-117zM143 1221l230 272h147l-272 -272h-105z" />
    <glyph glyph-name="icircumflex" unicode="&#xee;" horiz-adv-x="391" 
d="M137 0v1087h117v-1087h-117zM-96 1221l250 266h110l223 -266h-108l-174 176l-191 -176h-110z" />
    <glyph glyph-name="idieresis" unicode="&#xef;" horiz-adv-x="391" 
d="M137 0v1087h117v-1087h-117zM377 1302q-1 34 23 58t58 22q34 0 56 -24t23 -56q0 -34 -23 -58q-22 -24 -56 -24t-58 24q-23 24 -23 58zM-145 1302q-1 34 23 58t58 22q34 0 56 -24t22 -56q0 -34 -22 -58t-57 -24q-34 0 -57 24t-23 58z" />
    <glyph glyph-name="eth" unicode="&#xf0;" horiz-adv-x="1101" 
d="M209 551q0 -326 97 -392q54 -38 151 -38h184q141 0 197 106q55 105 55 323t-51 319t-201 102h-184q-61 -1 -103 -17t-78 -61q-67 -86 -67 -342zM92 536q0 280 82 415q82 136 283 136h184q51 0 111 -20t79 -45q-55 215 -169 330l-310 -123l-35 92l254 100q-127 84 -307 80
v103q266 0 430 -136l250 101l37 -92l-207 -82q236 -276 236 -854q0 -291 -96 -416t-273 -125h-184q-205 0 -285 128t-80 408z" />
    <glyph glyph-name="ntilde" unicode="&#xf1;" 
d="M137 0v1087h80l37 -126q181 111 300 134q56 11 138 11t160 -50q154 -99 154 -298v-758h-117v758q-1 106 -61 168t-168 63q-108 -1 -189 -27q-82 -26 -217 -92v-870h-117zM588 1382q78 -48 105 -47t47 9q21 8 40 14t49 29q31 23 54 32l35 -61q-6 -4 -58 -48t-95 -63
q-44 -19 -88 -17q-44 3 -116 50q-71 47 -107 47t-66 -11t-71 -36t-61 -35l-31 62q151 127 234 127q51 -4 129 -52z" />
    <glyph glyph-name="ograve" unicode="&#xf2;" horiz-adv-x="1165" 
d="M322 173q49 -43 105 -54t146 -12q89 -1 139 7q120 18 172 109q52 92 52 337t-85 347q-62 74 -268 74q-129 1 -184 -19t-81 -50q-87 -100 -87 -381q0 -282 91 -358zM115 528q0 168 23 277q47 212 224 266q86 27 222 27q266 0 367 -126t101 -436t-100 -428
q-102 -118 -369 -118t-367 120t-101 418zM272 1493h148l227 -272h-102z" />
    <glyph glyph-name="oacute" unicode="&#xf3;" horiz-adv-x="1165" 
d="M322 173q49 -43 105 -54t146 -12q89 -1 139 7q120 18 172 109q52 92 52 337t-85 347q-62 74 -268 74q-129 1 -184 -19t-81 -50q-87 -100 -87 -381q0 -282 91 -358zM115 528q0 168 23 277q47 212 224 266q86 27 222 27q266 0 367 -126t101 -436t-100 -428
q-102 -118 -369 -118t-367 120t-101 418zM532 1221l228 272h147l-272 -272h-103z" />
    <glyph glyph-name="ocircumflex" unicode="&#xf4;" horiz-adv-x="1165" 
d="M322 173q49 -43 105 -54t146 -12q89 -1 139 7q120 18 172 109q52 92 52 337t-85 347q-62 74 -268 74q-129 1 -184 -19t-81 -50q-87 -100 -87 -381q0 -282 91 -358zM115 528q0 168 23 277q47 212 224 266q86 27 222 27q266 0 367 -126t101 -436t-100 -428
q-102 -118 -369 -118t-367 120t-101 418zM297 1221l250 266h110l226 -266h-109l-174 176l-192 -176h-111z" />
    <glyph glyph-name="otilde" unicode="&#xf5;" horiz-adv-x="1165" 
d="M322 173q49 -43 105 -54t146 -12q89 -1 139 7q120 18 172 109q52 92 52 337t-85 347q-62 74 -268 74q-129 1 -184 -19t-81 -50q-87 -100 -87 -381q0 -282 91 -358zM115 528q0 168 23 277q47 212 224 266q86 27 222 27q266 0 367 -126t101 -436t-100 -428
q-102 -118 -369 -118t-367 120t-101 418zM715 1327q66 0 192 84l35 -61q-39 -26 -54 -42q-136 -146 -292 -44q-84 55 -120 55t-66 -11t-69 -36q-40 -25 -60 -35l-31 61q153 129 233 127q51 -4 128 -51t104 -47z" />
    <glyph glyph-name="odieresis" unicode="&#xf6;" horiz-adv-x="1165" 
d="M322 173q49 -43 105 -54t146 -12q89 -1 139 7q120 18 172 109q52 92 52 337t-85 347q-62 74 -268 74q-129 1 -184 -19t-81 -50q-87 -100 -87 -381q0 -282 91 -358zM115 528q0 168 23 277q47 212 224 266q86 27 222 27q266 0 367 -126t101 -436t-100 -428
q-102 -118 -369 -118t-367 120t-101 418zM788 1244q-24 24 -24 63t41 64q18 11 47 11q30 0 52 -24t22 -56q0 -34 -24 -58t-56 -24t-58 24zM244 1302q0 34 24 58t57 22q35 0 57 -24t22 -56q0 -34 -24 -58t-56 -24t-57 24q-23 24 -23 58z" />
    <glyph glyph-name="divide" unicode="&#xf7;" horiz-adv-x="1079" 
d="M469 981v104q0 41 41 41h76q39 0 39 -41v-104q0 -37 -39 -37h-76q-30 0 -38 22q-3 7 -3 15zM469 344v102q0 43 41 43h76q39 0 39 -43v-102q0 -39 -39 -39h-76q-26 1 -34 15t-7 24zM115 664v118h852v-118h-852z" />
    <glyph glyph-name="oslash" unicode="&#xf8;" horiz-adv-x="1165" 
d="M936 528q0 254 -66 353l-534 -721q68 -54 258 -54t254 68q63 68 79 192q9 69 9 162zM231 528q0 -213 56 -307l526 715q-68 45 -214 45q-146 1 -200 -19q-55 -20 -81 -50q-63 -73 -77 -204q-10 -76 -10 -180zM115 528q0 223 46 346q46 124 145 174t287 50t288 -66l43 55
h102l-80 -108q106 -123 106 -439t-100 -432q-102 -118 -368 -118q-213 0 -318 73l-47 -63h-96l86 117q-94 116 -94 411z" />
    <glyph glyph-name="ugrave" unicode="&#xf9;" 
d="M115 330v757h116v-757q1 -106 61 -168t168 -64q108 0 190 27t216 94v868h117v-1087h-80l-37 127q-78 -45 -129 -72t-130 -51t-156 -22q-156 0 -246 102t-90 246zM238 1493h147l229 -272h-104z" />
    <glyph glyph-name="uacute" unicode="&#xfa;" 
d="M115 330v757h116v-757q1 -106 61 -168t168 -64q108 0 190 27t216 94v868h117v-1087h-80l-37 127q-78 -45 -129 -72t-130 -51t-156 -22q-156 0 -246 102t-90 246zM498 1221l229 272h145l-272 -272h-102z" />
    <glyph glyph-name="ucircumflex" unicode="&#xfb;" 
d="M115 330v757h116v-757q1 -106 61 -168t168 -64q108 0 190 27t216 94v868h117v-1087h-80l-37 127q-78 -45 -129 -72t-130 -51t-156 -22q-156 0 -246 102t-90 246zM256 1221l252 266h108l226 -266h-109l-174 176l-192 -176h-111z" />
    <glyph glyph-name="udieresis" unicode="&#xfc;" 
d="M115 330v757h116v-757q1 -106 61 -168t168 -64q108 0 190 27t216 94v868h117v-1087h-80l-37 127q-78 -45 -129 -72t-130 -51t-156 -22q-156 0 -246 102t-90 246zM729 1302q0 34 24 58q23 24 57 22q34 0 58 -24t23 -61q0 -38 -40 -65q-17 -11 -46 -11q-29 -1 -53 23
t-23 58zM207 1302q-1 34 23 58t58 22q34 0 58 -24t23 -56q0 -34 -24 -58q-23 -24 -57 -24t-58 24q-23 24 -23 58z" />
    <glyph glyph-name="yacute" unicode="&#xfd;" horiz-adv-x="1116" 
d="M47 1087h129l277 -849q43 -125 141 -119l18 2l326 966h129l-479 -1431l-133 -209h-70l186 553q-176 2 -243 225zM506 1221l229 272h146l-273 -272h-102z" />
    <glyph glyph-name="thorn" unicode="&#xfe;" horiz-adv-x="1138" 
d="M276 150q178 -47 414 -54q125 0 183 102q59 102 59 334t-65 345t-177 112q-147 -6 -414 -108v-731zM160 -553v2155h116v-637q54 39 188 90t230 51t169 -47q183 -118 186 -512q0 -317 -96 -448q-39 -52 -105 -86q-66 -33 -151 -33t-208 22t-213 57v-612h-116z" />
    <glyph glyph-name="ydieresis" unicode="&#xff;" horiz-adv-x="1116" 
d="M47 1087h129l277 -849q43 -125 141 -119l18 2l326 966h129l-479 -1431l-133 -209h-70l186 553q-176 2 -243 225zM813 1382q39 0 63 -24t24 -56q0 -34 -24 -58t-57 -24t-57 24t-25 53q0 29 12 45q25 40 64 40zM215 1308q0 28 24 52q23 24 57 22q34 0 58 -24t23 -56
q0 -34 -24 -58t-63 -24q-40 0 -64 42q-12 18 -11 46z" />
    <glyph glyph-name="Amacron" unicode="&#x100;" horiz-adv-x="1363" 
d="M442 569h543l-266 760zM102 0l555 1499h125l529 -1499h-137l-148 453h-627l-155 -453h-142zM434 1632v97h572v-97h-572z" />
    <glyph glyph-name="amacron" unicode="&#x101;" horiz-adv-x="1062" 
d="M209 268q0 -86 44 -125q45 -39 101 -39q150 0 447 99l33 12v352l-469 -28q-156 -10 -156 -164v-107zM92 258v125q0 169 127 240q61 33 146 32q469 -2 469 0q2 135 0 138q0 203 -203 202q-170 0 -504 -32v84q217 59 510 61q137 2 225 -77t88 -238v-793h-86l-30 131
q-2 0 -77 -34t-139 -57q-304 -111 -448 19q-78 72 -78 199zM268 1231v96h572v-96h-572z" />
    <glyph glyph-name="Abreve" unicode="&#x102;" horiz-adv-x="1363" 
d="M442 569h543l-266 760zM102 0l555 1499h125l529 -1499h-137l-148 453h-627l-155 -453h-142zM489 1866h74q0 -68 48 -114t116 -46t114 44t46 116h74q0 -112 -73 -172t-164 -61t-163 64t-72 169z" />
    <glyph glyph-name="abreve" unicode="&#x103;" horiz-adv-x="1062" 
d="M209 268q0 -86 44 -125q45 -39 101 -39q150 0 447 99l33 12v352l-469 -28q-156 -10 -156 -164v-107zM92 258v125q0 169 127 240q61 33 146 32q469 -2 469 0q2 135 0 138q0 203 -203 202q-170 0 -504 -32v84q217 59 510 61q137 2 225 -77t88 -238v-793h-86l-30 131
q-2 0 -77 -34t-139 -57q-304 -111 -448 19q-78 72 -78 199zM322 1464h73q0 -68 48 -114t116 -45q68 0 114 44t46 115h74q0 -109 -72 -171t-164 -62t-164 64q-71 65 -71 169z" />
    <glyph glyph-name="Aogonek" unicode="&#x104;" horiz-adv-x="1363" 
d="M442 569h543l-266 760zM102 0l555 1499h125l529 -1499h-33q-92 -59 -122 -126t11 -110t138 -45v-90q-70 -10 -130 13q-118 45 -127 160q-5 50 37 106q43 55 132 92h-43l-148 453h-627l-155 -453h-142z" />
    <glyph glyph-name="aogonek" unicode="&#x105;" horiz-adv-x="1091" 
d="M221 268q0 -59 24 -97q41 -65 132 -67q139 0 436 99l33 12v352l-469 -28q-156 -10 -156 -164v-107zM104 258v125q0 169 127 240q61 33 146 32q469 -2 469 0q2 135 0 138q0 203 -201 202q-170 0 -506 -32v84q219 59 510 61q137 2 225 -77t89 -238v-793h-11
q-92 -59 -121 -126t11 -110t137 -45v-90q-68 -10 -129 13q-61 22 -92 66q-73 103 3 200q44 55 130 92h-12l-33 131l-31 -14q-202 -91 -294 -110q-91 -19 -144 -19q-117 0 -195 72t-78 198z" />
    <glyph glyph-name="Cacute" unicode="&#x106;" horiz-adv-x="1177" 
d="M625 -12q-500 0 -500 766q0 471 147 631q120 131 353 131q80 0 226 -16t253 -36v-88l-62 4q-30 2 -68 4t-83 6t-111 6q-66 3 -181 3t-195 -53q-162 -106 -162 -596q0 -645 383 -646q204 0 450 17l29 2v-90q-255 -45 -479 -45zM618 1638l230 273h145l-272 -273h-103z" />
    <glyph glyph-name="cacute" unicode="&#x107;" horiz-adv-x="1024" 
d="M257 1040q48 35 97 46q167 37 566 -42v-81q-264 18 -373 18t-152 -5t-82 -45q-38 -40 -59 -132t-22 -262q-1 -171 28 -267t79 -130t134 -34q177 0 387 23l74 6v-86q-199 -55 -461 -59q-68 0 -117 11t-97 47q-144 108 -144 498t142 494zM502 1223l227 272h148l-273 -272
h-102z" />
    <glyph glyph-name="Ccircumflex" unicode="&#x108;" horiz-adv-x="1177" 
d="M625 -12q-500 0 -500 766q0 471 147 631q120 131 353 131q80 0 226 -16t253 -36v-88l-62 4q-30 2 -68 4t-83 6t-111 6q-66 3 -181 3t-195 -53q-162 -106 -162 -596q0 -645 383 -646q204 0 450 17l29 2v-90q-255 -45 -479 -45zM385 1638l250 267h110l224 -267h-109
l-174 177l-190 -177h-111z" />
    <glyph glyph-name="ccircumflex" unicode="&#x109;" horiz-adv-x="1024" 
d="M257 1040q48 35 97 46q167 37 566 -42v-81q-264 18 -373 18t-152 -5t-82 -45q-38 -40 -59 -132t-22 -262q-1 -171 28 -267t79 -130t134 -34q177 0 387 23l74 6v-86q-199 -55 -461 -59q-68 0 -117 11t-97 47q-144 108 -144 498t142 494zM279 1223l249 266h109l225 -266
h-108l-174 176l-193 -176h-108z" />
    <glyph glyph-name="Cdotaccent" unicode="&#x10a;" horiz-adv-x="1177" 
d="M625 -12q-500 0 -500 766q0 471 147 631q120 131 353 131q80 0 226 -16t253 -36v-88l-62 4q-30 2 -68 4t-83 6t-111 6q-66 3 -181 3t-195 -53q-162 -106 -162 -596q0 -645 383 -646q204 0 450 17l29 2v-90q-255 -45 -479 -45zM621 1681v115q0 43 41 43h75q39 0 39 -43
v-115q0 -41 -39 -41h-75q-16 0 -28 12t-13 29z" />
    <glyph glyph-name="cdotaccent" unicode="&#x10b;" horiz-adv-x="1024" 
d="M257 1040q48 35 97 46q167 37 566 -42v-81q-264 18 -373 18t-152 -5t-82 -45q-38 -40 -59 -132t-22 -262q-1 -171 28 -267t79 -130t134 -34q177 0 387 23l74 6v-86q-199 -55 -461 -59q-68 0 -117 11t-97 47q-144 108 -144 498t142 494zM553 1227q-41 0 -41 39v116
q0 41 41 41h74q41 0 41 -41v-116q0 -39 -41 -39h-74z" />
    <glyph glyph-name="Ccaron" unicode="&#x10c;" horiz-adv-x="1177" 
d="M625 -12q-500 0 -500 766q0 471 147 631q120 131 353 131q80 0 226 -16t253 -36v-88l-62 4q-30 2 -68 4t-83 6t-111 6q-66 3 -181 3t-195 -53q-162 -106 -162 -596q0 -645 383 -646q204 0 450 17l29 2v-90q-255 -45 -479 -45zM395 1905h109l186 -176l180 176h109
l-231 -267h-113z" />
    <glyph glyph-name="ccaron" unicode="&#x10d;" horiz-adv-x="1024" 
d="M257 1040q48 35 97 46q167 37 566 -42v-81q-264 18 -373 18t-152 -5t-82 -45q-38 -40 -59 -132t-22 -262q-1 -171 28 -267t79 -130t134 -34q177 0 387 23l74 6v-86q-199 -55 -461 -59q-68 0 -117 11t-97 47q-144 108 -144 498t142 494zM268 1489h109l186 -176l180 176
h109l-231 -266h-111z" />
    <glyph glyph-name="Dcaron" unicode="&#x10e;" horiz-adv-x="1353" 
d="M301 121h426q106 0 188 53q149 96 203 342q25 109 25 229q0 637 -416 637h-426v-1261zM184 0v1499h543q176 0 281 -76q106 -76 158 -187q89 -185 94 -493q0 -223 -76 -407q-141 -336 -457 -336h-543zM387 1888h109l186 -176l180 176h109l-234 -266h-110z" />
    <glyph glyph-name="dcaron" unicode="&#x10f;" horiz-adv-x="1132" 
d="M1104 1552l100 47l19 -92l-15 -227l-75 -92l-23 180zM479 104q174 0 402 101v727q-215 55 -402 55q-148 0 -198 -122t-50 -334q0 -211 67 -319t181 -108zM483 -12q-368 0 -368 561q0 298 102 437q39 52 106 85t149 33t201 -23q118 -23 210 -59v586h112v-1608h-80l-34 121
q-47 -39 -177 -86t-221 -47z" />
    <glyph glyph-name="Dcroat" unicode="&#x110;" horiz-adv-x="1353" 
d="M301 121h420q106 0 188 53t129 143q94 180 92 428q0 324 -106 478t-303 153l-420 -2v-569h297v-82h-297v-602zM51 723v82h133v692q0 2 537 2q272 0 401 -197t129 -559q0 -224 -80 -421t-245 -277q-92 -45 -205 -45h-537v723h-133z" />
    <glyph glyph-name="dcroat" unicode="&#x111;" horiz-adv-x="1132" 
d="M231 539q0 -215 68 -325t182 -110q172 0 402 101v727q-215 55 -402 55q-124 0 -179 -89q-48 -73 -59 -171q-12 -98 -12 -188zM115 544q0 302 102 442q39 52 107 85t150 33t200 -23q117 -23 209 -59v256h-258v84h258v246h114v-246h154v-84h-154v-1278h-82l-32 121
q-49 -39 -178 -86t-219 -47t-157 34q-214 109 -214 522z" />
    <glyph glyph-name="Emacron" unicode="&#x112;" horiz-adv-x="1171" 
d="M184 252v981q0 141 73 206t185 60l633 -29v-88h-633q-80 0 -110 -38t-31 -111v-428l692 -17v-90l-692 -16v-430q0 -96 53 -122q39 -19 109 -19h612v-86l-612 -31q-206 -7 -256 120q-23 56 -23 138zM379 1628v96h569v-96h-569z" />
    <glyph glyph-name="emacron" unicode="&#x113;" horiz-adv-x="1075" 
d="M231 594h474q79 0 121 26t42 106t-13 131q-13 52 -52 80t-88 35t-165 7q-189 0 -244 -58t-67 -173q-8 -64 -8 -154zM115 502q0 168 10 255q18 157 94 247q82 92 350 92q192 0 270 -37q77 -37 111 -126q35 -89 35 -215t-69 -182t-211 -57h-474q0 -284 104 -345
q48 -28 138 -28q303 0 492 27v-86q-207 -59 -492 -57q-141 0 -218 54q-140 98 -140 458zM274 1219v96h570v-96h-570z" />
    <glyph glyph-name="Edotaccent" unicode="&#x116;" horiz-adv-x="1171" 
d="M184 252v981q0 141 73 206t185 60l633 -29v-88h-633q-80 0 -110 -38t-31 -111v-428l692 -17v-90l-692 -16v-430q0 -96 53 -122q39 -19 109 -19h612v-86l-612 -31q-206 -7 -256 120q-23 56 -23 138zM588 1667v117q0 43 41 43h76q39 0 38 -43v-117q0 -39 -38 -39h-76
q-18 0 -30 11q-11 12 -11 28z" />
    <glyph glyph-name="edotaccent" unicode="&#x117;" horiz-adv-x="1075" 
d="M231 594h474q79 0 121 26t42 106t-13 131q-13 52 -52 80t-88 35t-165 7q-189 0 -244 -58t-67 -173q-8 -64 -8 -154zM115 502q0 168 10 255q18 157 94 247q82 92 350 92q192 0 270 -37q77 -37 111 -126q35 -89 35 -215t-69 -182t-211 -57h-474q0 -284 104 -345
q48 -28 138 -28q303 0 492 27v-86q-207 -59 -492 -57q-141 0 -218 54q-140 98 -140 458zM494 1260v116q0 43 41 43h73q41 0 41 -43v-116q0 -39 -41 -39h-73q-25 1 -33 15t-8 24z" />
    <glyph glyph-name="Eogonek" unicode="&#x118;" horiz-adv-x="1171" 
d="M184 252v981q0 141 73 206t185 60l633 -29v-88h-633q-80 0 -110 -38t-31 -111v-428l692 -17v-90l-692 -16v-430q0 -96 53 -122q39 -19 109 -19h612v-86q-69 -45 -103 -97q-68 -105 16 -157q42 -27 114 -27v-90q-70 -10 -130 12t-91 66q-74 103 2 199q41 52 123 90
l-543 -27q-206 -7 -256 120q-23 56 -23 138z" />
    <glyph glyph-name="eogonek" unicode="&#x119;" horiz-adv-x="1075" 
d="M231 594h474q79 0 121 26t42 106t-13 131q-13 52 -52 80t-88 35t-165 7q-189 0 -244 -58t-67 -173q-8 -64 -8 -154zM115 502q0 168 10 255q18 157 94 247q82 92 350 92q192 0 270 -37q77 -37 111 -126q35 -89 35 -215t-69 -182t-211 -57h-474q0 -284 104 -345
q48 -28 138 -28q303 0 492 27v-86q-70 -45 -104 -95q-69 -101 16 -158q41 -28 112 -27v-91q-68 -10 -128 13t-91 67q-74 104 1 199q29 36 77 65q-168 -30 -342 -30t-251 54q-140 98 -140 458z" />
    <glyph glyph-name="Ecaron" unicode="&#x11a;" horiz-adv-x="1171" 
d="M184 252v981q0 141 73 206t185 60l633 -29v-88h-633q-80 0 -110 -38t-31 -111v-428l692 -17v-90l-692 -16v-430q0 -96 53 -122q39 -19 109 -19h612v-86l-612 -31q-206 -7 -256 120q-23 56 -23 138zM371 1888h108l187 -176l180 176h108l-231 -266h-111z" />
    <glyph glyph-name="ecaron" unicode="&#x11b;" horiz-adv-x="1075" 
d="M231 594h474q79 0 121 26t42 106t-13 131q-13 52 -52 80t-88 35t-165 7q-189 0 -244 -58t-67 -173q-8 -64 -8 -154zM115 502q0 168 10 255q18 157 94 247q82 92 350 92q192 0 270 -37q77 -37 111 -126q35 -89 35 -215t-69 -182t-211 -57h-474q0 -284 104 -345
q48 -28 138 -28q303 0 492 27v-86q-207 -59 -492 -57q-141 0 -218 54q-140 98 -140 458zM283 1481h108l187 -176l180 176h108l-231 -267h-113z" />
    <glyph glyph-name="Gcircumflex" unicode="&#x11c;" horiz-adv-x="1261" 
d="M125 776q0 424 128 592q50 66 136 107q85 41 185 41t265 -18t271 -38v-92q-2 0 -38 3t-92 7t-156 12t-209 9q-109 0 -171 -28q-124 -56 -163 -208t-39 -409q0 -358 77 -503q78 -144 283 -147q132 0 354 74l72 25v475h-377v78q152 41 355 41q66 0 139 -6v-791h-86l-27 104
q-109 -61 -227 -88q-117 -26 -204 -26q-260 1 -364 165q-36 56 -57 117q-55 168 -55 504zM389 1638l250 267h111l225 -267h-109l-174 177l-192 -177h-111z" />
    <glyph glyph-name="gcircumflex" unicode="&#x11d;" horiz-adv-x="1146" 
d="M457 975q-129 1 -181 -73t-51 -194t55 -195t169 -75h202q66 0 114 26q122 66 118 241q-2 135 -50 203t-153 67h-223zM338 41q-76 0 -117 31v-310q0 -126 70 -162t137 -36h307q190 0 191 192v115q0 84 -38 127t-138 43h-412zM109 240q0 55 36 102q37 47 103 57
q-139 74 -139 306q0 387 354 387h639v-86l-187 -31q1 -1 13 -17t16 -23t15 -25q40 -67 40 -180q0 -293 -190 -380q-63 -29 -147 -28h-320q-59 0 -88 -24t-29 -61q0 -38 34 -60t77 -21h432q173 0 243 -132q32 -62 31 -147v-121q0 -134 -54 -203t-120 -88q-67 -18 -133 -18
h-307q-201 0 -284 141q-42 72 -42 174v181l64 161q-57 44 -57 136zM276 1223l250 266h111l223 -266h-108l-174 176l-191 -176h-111z" />
    <glyph glyph-name="Gbreve" unicode="&#x11e;" horiz-adv-x="1261" 
d="M125 776q0 424 128 592q50 66 136 107q85 41 185 41t265 -18t271 -38v-92q-2 0 -38 3t-92 7t-156 12t-209 9q-109 0 -171 -28q-124 -56 -163 -208t-39 -409q0 -358 77 -503q78 -144 283 -147q132 0 354 74l72 25v475h-377v78q152 41 355 41q66 0 139 -6v-791h-86l-27 104
q-109 -61 -227 -88q-117 -26 -204 -26q-260 1 -364 165q-36 56 -57 117q-55 168 -55 504zM457 1872h73q0 -68 48 -114t116 -46t114 44t46 116h74q0 -112 -73 -172t-164 -61t-163 64q-71 65 -71 169z" />
    <glyph glyph-name="gbreve" unicode="&#x11f;" horiz-adv-x="1146" 
d="M457 975q-129 1 -181 -73t-51 -194t55 -195t169 -75h202q66 0 114 26q122 66 118 241q-2 135 -50 203t-153 67h-223zM338 41q-76 0 -117 31v-310q0 -126 70 -162t137 -36h307q190 0 191 192v115q0 84 -38 127t-138 43h-412zM109 240q0 55 36 102q37 47 103 57
q-139 74 -139 306q0 387 354 387h639v-86l-187 -31q1 -1 13 -17t16 -23t15 -25q40 -67 40 -180q0 -293 -190 -380q-63 -29 -147 -28h-320q-59 0 -88 -24t-29 -61q0 -38 34 -60t77 -21h432q173 0 243 -132q32 -62 31 -147v-121q0 -134 -54 -203t-120 -88q-67 -18 -133 -18
h-307q-201 0 -284 141q-42 72 -42 174v181l64 161q-57 44 -57 136zM330 1456h71q-1 -68 49 -115t104 -46t92 21q83 43 81 140h74q0 -111 -73 -172t-166 -61q-92 0 -162 63t-70 170z" />
    <glyph glyph-name="Gdotaccent" unicode="&#x120;" horiz-adv-x="1261" 
d="M125 776q0 424 128 592q50 66 136 107q85 41 185 41t265 -18t271 -38v-92q-2 0 -38 3t-92 7t-156 12t-209 9q-109 0 -171 -28q-124 -56 -163 -208t-39 -409q0 -358 77 -503q78 -144 283 -147q132 0 354 74l72 25v475h-377v78q152 41 355 41q66 0 139 -6v-791h-86l-27 104
q-109 -61 -227 -88q-117 -26 -204 -26q-260 1 -364 165q-36 56 -57 117q-55 168 -55 504zM602 1677v117q0 43 41 43h76q39 0 39 -43v-117q0 -39 -39 -39h-76q-19 0 -30 14t-11 25z" />
    <glyph glyph-name="gdotaccent" unicode="&#x121;" horiz-adv-x="1146" 
d="M457 975q-129 1 -181 -73t-51 -194t55 -195t169 -75h202q66 0 114 26q122 66 118 241q-2 135 -50 203t-153 67h-223zM338 41q-76 0 -117 31v-310q0 -126 70 -162t137 -36h307q190 0 191 192v115q0 84 -38 127t-138 43h-412zM109 240q0 55 36 102q37 47 103 57
q-139 74 -139 306q0 387 354 387h639v-86l-187 -31q1 -1 13 -17t16 -23t15 -25q40 -67 40 -180q0 -293 -190 -380q-63 -29 -147 -28h-320q-59 0 -88 -24t-29 -61q0 -38 34 -60t77 -21h432q173 0 243 -132q32 -62 31 -147v-121q0 -134 -54 -203t-120 -88q-67 -18 -133 -18
h-307q-201 0 -284 141q-42 72 -42 174v181l64 161q-57 44 -57 136zM498 1264v116q0 43 41 43h75q39 0 39 -43v-116q0 -39 -39 -39h-75q-25 1 -33 15t-8 24z" />
    <glyph glyph-name="Gcommaaccent" unicode="&#x122;" horiz-adv-x="1261" 
d="M125 776q0 424 128 592q50 66 136 107q85 41 185 41t265 -18t271 -38v-92q-2 0 -38 3t-92 7t-156 12t-209 9q-109 0 -171 -28q-124 -56 -163 -208t-39 -409q0 -358 77 -503q78 -144 283 -147q132 0 354 74l72 25v475h-377v78q152 41 355 41q66 0 139 -6v-791h-86l-27 104
q-109 -61 -227 -88q-117 -26 -204 -26q-260 1 -364 165q-36 56 -57 117q-55 168 -55 504zM594 -289v105q0 41 37 41h69q35 0 35 -41v-181q0 -79 -45 -99t-90 -13v43q49 -2 49 47v59h-18q-37 0 -37 39z" />
    <glyph glyph-name="gcommaaccent" unicode="&#x123;" horiz-adv-x="1146" 
d="M457 975q-129 1 -181 -73t-51 -194t55 -194t169 -74h202q130 0 182 82t50 200q-4 253 -203 253h-223zM221 -238q0 -126 70 -162t137 -36h307q190 0 191 198v58q0 143 -201 170l-373 49q-47 6 -131 33v-310zM109 222q0 74 35 121q36 48 104 56q-139 74 -139 306
q0 387 354 387h639v-86l-187 -31q1 -1 13 -17t16 -23t15 -25q40 -67 40 -180q0 -293 -190 -380q-63 -29 -147 -28h-320q-57 0 -87 -24t-30 -56q0 -72 117 -88l403 -52q133 -16 215 -86t82 -186v-68q0 -230 -172 -293q-57 -22 -135 -22h-307q-201 0 -284 141q-42 72 -42 174
v181l64 159q-57 46 -57 120zM498 1255v179q0 79 43 99t92 13v-41q-47 0 -47 -47v-61h16q39 0 39 -37v-105q0 -41 -39 -41h-67q-37 0 -37 41z" />
    <glyph glyph-name="Hcircumflex" unicode="&#x124;" horiz-adv-x="1323" 
d="M184 0v1499h117v-717h778v717h117v-1499h-117v668h-778v-668h-117zM397 1632l250 266h111l223 -266h-109l-172 176l-192 -176h-111z" />
    <glyph glyph-name="hcircumflex" unicode="&#x125;" 
d="M152 0v1606h116v-645q78 47 128 73t130 48q80 24 171 24t169 -50q154 -99 154 -298v-758h-117v758q0 109 -59 170q-58 61 -150 61q-167 0 -283 -52q-50 -22 -143 -67v-870h-116zM-88 1729l250 266h110l224 -266h-109l-174 176l-190 -176h-111z" />
    <glyph glyph-name="Hbar" unicode="&#x126;" horiz-adv-x="1351" 
d="M301 782h778v289h-778v-289zM55 1071v84h129v344h117v-344h778v344h117v-344h125v-84h-125v-1071h-117v668h-778v-668h-117v1071h-129z" />
    <glyph glyph-name="hbar" unicode="&#x127;" 
d="M258 0h-121v1264h-151v84h151v258h121v-258h283v-84h-283v-303q246 147 424 145q152 4 238 -98t86 -248v-760h-121v756q-8 235 -226 235q-96 -3 -187 -31t-214 -90v-870z" />
    <glyph glyph-name="Itilde" unicode="&#x128;" horiz-adv-x="428" 
d="M184 0v1499h117v-1499h-117zM353 1739q17 0 42 2t53 20q29 17 42 24q49 26 63 38l35 -62q-19 -13 -66 -54q-93 -81 -164 -73q-55 2 -127 49t-119 48t-106 -36t-80 -46l-30 61q153 129 233 127q51 -4 129 -51t95 -47z" />
    <glyph glyph-name="itilde" unicode="&#x129;" horiz-adv-x="391" 
d="M137 0v1087h117v-1087h-117zM307 1327q18 0 47 5t63 25q35 21 43 26t25 15q16 10 23 13l35 -61q-33 -22 -51 -40q-99 -96 -179 -87q-57 2 -129 49t-119 47t-105 -36t-79 -46l-31 61q115 96 159 112q45 15 85 13t118 -49q77 -47 95 -47z" />
    <glyph glyph-name="Imacron" unicode="&#x12a;" horiz-adv-x="428" 
d="M184 0v1499h117v-1499h-117zM-43 1632v97h569v-97h-569z" />
    <glyph glyph-name="imacron" unicode="&#x12b;" horiz-adv-x="391" 
d="M137 0v1087h117v-1087h-117zM-90 1221v96h571v-96h-571z" />
    <glyph glyph-name="Iogonek" unicode="&#x12e;" horiz-adv-x="428" 
d="M184 0v1499h117v-1499h-25q-92 -59 -122 -126t12 -110q41 -43 137 -45v-90q-70 -10 -130 13q-60 22 -91 66q-73 102 2 200q43 55 131 92h-31z" />
    <glyph glyph-name="iogonek" unicode="&#x12f;" horiz-adv-x="382" 
d="M145 0v1087h117v-1087h-20q-92 -59 -122 -126t10 -110t136 -45v-90q-68 -10 -128 13q-60 22 -91 66q-74 104 1 200q44 55 132 92h-35zM129 1268v114q0 43 39 43h76q39 0 39 -43v-114q0 -41 -39 -41h-76q-39 0 -39 41z" />
    <glyph glyph-name="Idotaccent" unicode="&#x130;" horiz-adv-x="428" 
d="M184 0v1499h117v-1499h-117zM164 1671v117q0 43 41 43h76q39 0 38 -43v-117q0 -39 -38 -39h-76q-17 0 -29 12t-12 27z" />
    <glyph glyph-name="dotlessi" unicode="&#x131;" horiz-adv-x="391" 
d="M137 0v1087h117v-1087h-117z" />
    <glyph glyph-name="Jcircumflex" unicode="&#x134;" horiz-adv-x="727" 
d="M483 338v1161h117v-1161q0 -229 -106 -301q-78 -51 -206 -49t-208 55l8 82q45 -10 74 -17q133 -32 206 -2q115 48 115 232zM250 1632l250 266h110l224 -266h-109l-174 176l-193 -176h-108z" />
    <glyph glyph-name="jcircumflex" unicode="&#x135;" horiz-adv-x="411" 
d="M141 -553v1640h125v-1095q2 -317 -43 -545h-82zM-96 1225l250 307h110l223 -307h-92l-190 202l-205 -202h-96z" />
    <glyph glyph-name="Kcommaaccent" unicode="&#x136;" horiz-adv-x="1210" 
d="M184 0v1499h117v-688h215l479 688h142l-512 -747l512 -752h-142l-479 692h-213v-692h-119zM565 -279v105q0 41 39 41h68q37 0 37 -41v-180q-1 -39 -15 -66q-32 -59 -121 -47v43q47 -2 48 47v60h-17q-39 -1 -39 38z" />
    <glyph glyph-name="kcommaaccent" unicode="&#x137;" horiz-adv-x="1021" 
d="M137 0v1602h117v-918h96l461 403h166l-516 -462l516 -625h-150l-477 565h-96v-565h-117zM471 -279v105q0 41 39 41h68q37 0 36 -41v-180q0 -80 -45 -99q-45 -20 -90 -14v43q47 -2 47 47v60h-16q-39 -1 -39 38z" />
    <glyph glyph-name="kgreenlandic" unicode="&#x138;" horiz-adv-x="1028" 
d="M137 0v1087h117v-487h195l391 487h143l-430 -544l401 -543h-145l-365 483h-188l-2 -483h-117z" />
    <glyph glyph-name="Lacute" unicode="&#x139;" horiz-adv-x="1140" 
d="M184 258v1241h117v-1241q0 -98 46 -119q46 -22 116 -22h604v-117h-604q-118 0 -190 41q-89 51 -89 217zM193 1628l229 273h147l-272 -273h-104z" />
    <glyph glyph-name="lacute" unicode="&#x13a;" horiz-adv-x="612" 
d="M137 387v1217h117v-1217q0 -160 42 -209q42 -50 99 -61q158 -37 172 -37v-80h-166q-264 0 -264 387zM186 1726l230 273h147l-272 -273h-105z" />
    <glyph glyph-name="Lcommaaccent" unicode="&#x13b;" horiz-adv-x="1140" 
d="M184 258v1241h117v-1241q0 -98 46 -119q46 -22 116 -22h604v-117h-604q-118 0 -190 41q-89 51 -89 217zM569 -279v105q0 41 39 41h68q37 0 37 -41v-180q0 -60 -28 -85t-48 -27q-21 -3 -33 -3t-18 2h-8v43q47 -2 47 47v60h-17q-39 -1 -39 38z" />
    <glyph glyph-name="lcommaaccent" unicode="&#x13c;" horiz-adv-x="612" 
d="M137 387v1217h117v-1217q0 -160 42 -209q42 -50 99 -61q158 -37 172 -37v-80h-166q-264 0 -264 387zM252 -279v105q0 41 39 41h67q37 0 37 -41v-180q0 -80 -45 -100t-90 -13v43q47 -2 47 47v60h-16q-39 -1 -39 38z" />
    <glyph glyph-name="Lcaron" unicode="&#x13d;" horiz-adv-x="1140" 
d="M463 1581h119v-137l-19 -275h-80l-20 275v137zM184 258v1241h117v-1241q0 -98 46 -119q46 -22 116 -22h604v-117h-604q-118 0 -190 41q-89 51 -89 217z" />
    <glyph glyph-name="lcaron" unicode="&#x13e;" horiz-adv-x="612" 
d="M426 1599h119v-137l-19 -274h-80l-20 274v137zM137 387v1217h117v-1217q0 -194 60 -237q28 -20 134 -45t119 -25v-80h-170q-137 0 -199 87t-61 300z" />
    <glyph glyph-name="Lslash" unicode="&#x141;" horiz-adv-x="1140" 
d="M184 1499h117v-594l272 117l-2 -96l-270 -119v-549q0 -98 46 -119q46 -22 116 -22h604v-117h-604q-118 0 -190 41q-89 51 -89 217v500l-170 -74v96l170 74v645z" />
    <glyph glyph-name="lslash" unicode="&#x142;" horiz-adv-x="653" 
d="M178 1604h117v-607l287 131l-2 -94l-285 -133v-514q0 -190 66 -240q29 -19 131 -43t116 -24v-80h-170q-124 0 -192 90t-68 297v463l-158 -74v98l158 70v660z" />
    <glyph glyph-name="Nacute" unicode="&#x143;" horiz-adv-x="1380" 
d="M184 0v1499h119l834 -1280v1280h116v-1499h-116l-836 1280v-1280h-117zM686 1632l227 273h148l-273 -273h-102z" />
    <glyph glyph-name="nacute" unicode="&#x144;" 
d="M137 0v1087h80l37 -126q181 111 300 134q56 11 138 11t160 -50q154 -99 154 -298v-758h-117v758q-1 106 -61 168t-168 63q-108 -1 -189 -27q-82 -26 -217 -92v-870h-117zM516 1229l227 272h148l-273 -272h-102z" />
    <glyph glyph-name="Ncommaaccent" unicode="&#x145;" horiz-adv-x="1380" 
d="M184 0v1499h119l834 -1280v1280h116v-1499h-116l-836 1280v-1280h-117zM647 -283v105q0 41 37 41h70q37 0 37 -41v-178q0 -80 -46 -101t-90 -14v43q47 0 47 47v62h-18q-37 -1 -37 36z" />
    <glyph glyph-name="ncommaaccent" unicode="&#x146;" 
d="M137 0v1087h80l37 -126q181 111 300 134q56 11 138 11t160 -50q154 -99 154 -298v-758h-117v758q-1 106 -61 168t-168 63q-108 -1 -189 -27q-82 -26 -217 -92v-870h-117zM502 -279v105q0 41 39 41h67q37 0 37 -41v-180q0 -78 -45 -99t-90 -14v43q47 -2 47 47v60h-16
q-39 -1 -39 38z" />
    <glyph glyph-name="Ncaron" unicode="&#x147;" horiz-adv-x="1380" 
d="M184 0v1499h119l834 -1280v1280h116v-1499h-116l-836 1280v-1280h-117zM440 1898h109l186 -176l180 176h109l-231 -266h-113z" />
    <glyph glyph-name="ncaron" unicode="&#x148;" 
d="M137 0v1087h80l37 -126q181 111 300 134q56 11 138 11t160 -50q154 -99 154 -298v-758h-117v758q-1 106 -61 168t-168 63q-108 -1 -189 -27q-82 -26 -217 -92v-870h-117zM295 1495h108l187 -176l180 176h109l-234 -266h-110z" />
    <glyph glyph-name="Eng" unicode="&#x14a;" horiz-adv-x="1378" 
d="M184 0v1499h119l832 -1266v1266h116v-1671q0 -179 -66 -255q-66 -75 -202 -92q-55 -7 -135 -7v90q150 19 198 54t61 69q26 67 28 159v154l-832 1280l-2 -1280h-117z" />
    <glyph glyph-name="eng" unicode="&#x14b;" horiz-adv-x="1142" 
d="M137 0v1087h80l37 -126q8 3 44 25q50 30 150 75q101 45 211 45q109 0 188 -50q159 -101 159 -298v-758l-2 -184q-6 -166 -94 -242q-84 -76 -232 -106l-49 61q183 62 234 170q24 49 26 113v946q1 102 -63 167t-153 65q-161 -1 -281 -56q-46 -20 -138 -66v-868h-117z" />
    <glyph glyph-name="Omacron" unicode="&#x14c;" horiz-adv-x="1382" 
d="M323 1193q-57 -126 -57 -410t27 -404q27 -121 106 -196q78 -74 320 -74q106 0 175 13q157 30 217 168q60 139 60 457q0 317 -47 432t-104 155q-58 40 -133 49q-75 10 -164 10q-90 0 -137 -4q-46 -5 -108 -23t-93 -60t-62 -113zM258 159q-108 150 -108 580t115 598
q40 57 83 90t129 57t207 25q121 0 180 -6q152 -16 229 -76q104 -82 150 -245q45 -163 45 -385q0 -223 -16 -343q-29 -215 -129 -336q-78 -95 -253 -117q-71 -9 -164 -9q-92 0 -154 5q-157 13 -233 75q-42 33 -81 87zM434 1632v97h572v-97h-572z" />
    <glyph glyph-name="omacron" unicode="&#x14d;" horiz-adv-x="1165" 
d="M322 173q49 -43 105 -54t146 -12q89 -1 139 7q120 18 172 109q52 92 52 337t-85 347q-62 74 -268 74q-129 1 -184 -19t-81 -50q-87 -100 -87 -381q0 -282 91 -358zM115 528q0 168 23 277q47 212 224 266q86 27 222 27q266 0 367 -126t101 -436t-100 -428
q-102 -118 -369 -118t-367 120t-101 418zM297 1221v96h571v-96h-571z" />
    <glyph glyph-name="Ohungarumlaut" unicode="&#x150;" horiz-adv-x="1382" 
d="M323 1193q-57 -126 -57 -410t27 -404q27 -121 106 -196q78 -74 320 -74q106 0 175 13q157 30 217 168q60 139 60 457q0 317 -47 432t-104 155q-58 40 -133 49q-75 10 -164 10q-90 0 -137 -4q-46 -5 -108 -23t-93 -60t-62 -113zM258 159q-108 150 -108 580t115 598
q40 57 83 90t129 57t207 25q121 0 180 -6q152 -16 229 -76q104 -82 150 -245q45 -163 45 -385q0 -223 -16 -343q-29 -215 -129 -336q-78 -95 -253 -117q-71 -9 -164 -9q-92 0 -154 5q-157 13 -233 75q-42 33 -81 87zM807 1632l229 273h148l-273 -273h-104zM528 1632l230 273
h145l-272 -273h-103z" />
    <glyph glyph-name="ohungarumlaut" unicode="&#x151;" horiz-adv-x="1165" 
d="M322 173q49 -43 105 -54t146 -12q89 -1 139 7q120 18 172 109q52 92 52 337t-85 347q-62 74 -268 74q-129 1 -184 -19t-81 -50q-87 -100 -87 -381q0 -282 91 -358zM115 528q0 168 23 277q47 212 224 266q86 27 222 27q266 0 367 -126t101 -436t-100 -428
q-102 -118 -369 -118t-367 120t-101 418zM672 1221l227 272h148l-273 -272h-102zM391 1221l230 272h147l-272 -272h-105z" />
    <glyph glyph-name="OE" unicode="&#x152;" horiz-adv-x="2158" 
d="M258 159q-108 150 -108 583t114 595q41 57 84 90q107 82 379 82t376 -95q46 -42 81 -105q18 102 85 148t158 42l615 -29v-88h-615q-106 0 -130 -70q-11 -32 -11 -79q0 -377 2 -428l672 -17v-90l-672 -16l-2 -430q4 -98 48 -120q44 -21 114 -21h594v-86l-594 -31
q-106 -6 -177 34t-89 156q-66 -116 -176 -154t-242 -38q-134 0 -194 5q-157 13 -231 75q-42 33 -81 87zM323 1193q-57 -126 -57 -410t28 -406t103 -195q78 -73 322 -73q178 0 268 45q53 26 86 70q96 126 96 498q0 218 -20 341t-46 167q-25 44 -49 75t-86 56t-130 29
q-68 3 -138 3q-251 0 -315 -87q-31 -42 -62 -113z" />
    <glyph glyph-name="oe" unicode="&#x153;" horiz-adv-x="1892" 
d="M1522 594q82 0 123 26t41 106t-13 131q-12 52 -52 80t-88 35t-164 7q-190 0 -246 -61q-57 -61 -68 -176q-6 -62 -4 -148h471zM271 833q-40 -91 -40 -297t41 -289q23 -46 50 -75t81 -47t171 -18q116 -1 181 17q133 36 164 198q15 82 15 220q0 271 -83 358q-47 48 -107 64
t-144 17q-84 0 -126 -4q-42 -3 -86 -19t-70 -46t-47 -79zM115 564q0 386 191 484q100 50 270 50t266 -45t145 -146q36 105 143 155q81 34 267 34q185 0 262 -38t110 -124q33 -85 33 -213q0 -129 -68 -185t-212 -57h-471q-4 -276 100 -341q51 -32 139 -32q305 0 492 27v-86
q-207 -59 -492 -57q-124 0 -196 43t-109 137q-47 -96 -143 -138t-246 -42t-241 28q-175 56 -219 260q-22 98 -21 286z" />
    <glyph glyph-name="Racute" unicode="&#x154;" horiz-adv-x="1200" 
d="M254 754h498q140 0 186 74q45 74 45 205q0 236 -75 296q-59 51 -156 51h-498v-626zM137 0v1499h615q350 0 350 -436q0 -299 -146 -387q-44 -27 -72 -34t-65 -9l322 -633h-127l-320 629q-30 0 -234 12t-206 14v-655h-117zM541 1622l229 272h148l-273 -272h-104z" />
    <glyph glyph-name="racute" unicode="&#x155;" horiz-adv-x="870" 
d="M137 0v1087h80l37 -137q26 13 84 46q58 34 69 38t39 18t42 17q15 3 59 17t142 14t136 -17v-114q-57 12 -117 12t-84 -2t-42 -3t-44 -8q-26 -6 -38 -8t-41 -13t-37 -14t-41 -17t-38 -18q-5 -3 -44 -21t-45 -21v-856h-117zM457 1225l229 272h145l-272 -272h-102z" />
    <glyph glyph-name="Rcommaaccent" unicode="&#x156;" horiz-adv-x="1200" 
d="M254 754h498q140 0 186 74q45 74 45 205q0 236 -75 296q-59 51 -156 51h-498v-626zM137 0v1499h615q350 0 350 -436q0 -299 -146 -387q-44 -27 -72 -34t-65 -9l322 -633h-127l-320 629q-30 0 -234 12t-206 14v-655h-117zM537 -279v105q0 41 36 41h68q37 0 37 -41v-180
q0 -80 -45 -100t-90 -13v43q47 -2 47 47v60h-17q-36 -1 -36 38z" />
    <glyph glyph-name="rcommaaccent" unicode="&#x157;" horiz-adv-x="870" 
d="M135 0v1087h78l39 -137q4 2 66 38t79 43q16 7 44 21t43 17t61 17t143 14t135 -17v-114q-57 12 -117 12t-86 -2q-24 -2 -42 -3t-44 -8q-26 -6 -38 -8t-40 -13t-36 -14t-41 -17t-38 -18q-5 -3 -45 -21t-44 -21v-856h-117zM123 -279v105q0 41 37 41h67q37 0 37 -41v-180
q0 -59 -19 -77q-36 -33 -56 -35q-21 -3 -33 -3t-19 2h-8v43q47 -2 47 47v60h-16q-37 -1 -37 38z" />
    <glyph glyph-name="Rcaron" unicode="&#x158;" horiz-adv-x="1200" 
d="M254 754h498q140 0 186 74q45 74 45 205q0 236 -75 296q-59 51 -156 51h-498v-626zM137 0v1499h615q350 0 350 -436q0 -299 -146 -387q-44 -27 -72 -34t-65 -9l322 -633h-127l-320 629q-30 0 -234 12t-206 14v-655h-117zM303 1894h109l186 -176l180 176h109l-232 -266
h-112z" />
    <glyph glyph-name="rcaron" unicode="&#x159;" horiz-adv-x="870" 
d="M137 0v1087h80l37 -137q26 13 84 46q58 34 69 38t39 18t42 17q15 3 59 17t142 14t136 -17v-114q-57 12 -117 12t-84 -2t-42 -3t-44 -8q-26 -6 -38 -8t-41 -13t-37 -14t-41 -17t-38 -18q-5 -3 -44 -21t-45 -21v-856h-117zM188 1489h109l188 -176l181 176h108l-233 -266
h-111z" />
    <glyph glyph-name="Sacute" unicode="&#x15a;" horiz-adv-x="1196" 
d="M1102 319q0 -335 -378 -335q-106 0 -283 15t-251 30v90q199 -19 372 -19t207 3q143 13 196 117q20 42 20 99v140q0 109 -47 163t-160 54h-268q-257 0 -327 146q-33 69 -33 190v135q0 215 115 295q99 69 286 69q74 0 242 -16t251 -29v-90l-493 19q-141 6 -213 -44
t-72 -204v-135q0 -138 65 -183q37 -27 86 -30q50 -4 89 -4h272q197 0 264 -107q60 -93 60 -229v-140zM580 1634l227 273h147l-272 -273h-102z" />
    <glyph glyph-name="sacute" unicode="&#x15b;" horiz-adv-x="1034" 
d="M92 737v94q0 131 65 199t243 68t489 -29v-86h-514q-102 0 -134 -36t-32 -116v-94q0 -100 43 -119q43 -20 123 -20h303q126 0 196 -68t70 -184v-100q0 -161 -86 -213q-71 -43 -160 -43q-90 0 -292 12t-269 21v83h570q7 0 35 8q84 23 85 132v100q0 137 -149 137h-303
q-155 0 -219 51t-64 203zM467 1231l229 272h146l-273 -272h-102z" />
    <glyph glyph-name="Scircumflex" unicode="&#x15c;" horiz-adv-x="1196" 
d="M1102 319q0 -335 -378 -335q-106 0 -283 15t-251 30v90q199 -19 372 -19t207 3q143 13 196 117q20 42 20 99v140q0 109 -47 163t-160 54h-268q-257 0 -327 146q-33 69 -33 190v135q0 215 115 295q99 69 286 69q74 0 242 -16t251 -29v-90l-493 19q-141 6 -213 -44
t-72 -204v-135q0 -138 65 -183q37 -27 86 -30q50 -4 89 -4h272q197 0 264 -107q60 -93 60 -229v-140zM344 1634l250 267h111l223 -267h-109l-174 176l-190 -176h-111z" />
    <glyph glyph-name="scircumflex" unicode="&#x15d;" horiz-adv-x="1034" 
d="M92 737v94q0 131 65 199t243 68t489 -29v-86h-514q-102 0 -134 -36t-32 -116v-94q0 -100 43 -119q43 -20 123 -20h303q126 0 196 -68t70 -184v-100q0 -161 -86 -213q-71 -43 -160 -43q-90 0 -292 12t-269 21v83h570q7 0 35 8q84 23 85 132v100q0 137 -149 137h-303
q-155 0 -219 51t-64 203zM223 1221l250 266h111l223 -266h-109l-174 176l-190 -176h-111z" />
    <glyph glyph-name="Scedilla" unicode="&#x15e;" horiz-adv-x="1196" 
d="M1102 319q0 -335 -378 -335q-106 0 -283 15t-251 30v90q199 -19 372 -19t207 3q143 13 196 117q20 42 20 99v140q0 109 -47 163t-160 54h-268q-257 0 -327 146q-33 69 -33 190v135q0 215 115 295q99 69 286 69q74 0 242 -16t251 -29v-90l-493 19q-141 6 -213 -44
t-72 -204v-135q0 -138 65 -183q37 -27 86 -30q50 -4 89 -4h272q197 0 264 -107q60 -93 60 -229v-140zM707 -92q0 -160 -42 -219t-165 -60h-90v56l94 22q55 15 78 61t22 140h103z" />
    <glyph glyph-name="scedilla" unicode="&#x15f;" horiz-adv-x="1034" 
d="M92 737v94q0 131 65 199t243 68t489 -29v-86h-514q-102 0 -134 -36t-32 -116v-94q0 -100 43 -119q43 -20 123 -20h303q126 0 196 -68t70 -184v-100q0 -161 -86 -213q-71 -43 -160 -43q-90 0 -292 12t-269 21v83h570q7 0 35 8q84 23 85 132v100q0 137 -149 137h-303
q-155 0 -219 51t-64 203zM498 -80h102q0 -160 -43 -219t-164 -59h-90v55l94 22q55 15 78 61t23 140z" />
    <glyph glyph-name="Scaron" unicode="&#x160;" horiz-adv-x="1196" 
d="M1102 319q0 -335 -378 -335q-106 0 -283 15t-251 30v90q199 -19 372 -19t207 3q143 13 196 117q20 42 20 99v140q0 109 -47 163t-160 54h-268q-257 0 -327 146q-33 69 -33 190v135q0 215 115 295q99 69 286 69q74 0 242 -16t251 -29v-90l-493 19q-141 6 -213 -44
t-72 -204v-135q0 -138 65 -183q37 -27 86 -30q50 -4 89 -4h272q197 0 264 -107q60 -93 60 -229v-140zM344 1901h109l186 -177l180 177h109l-232 -267h-110z" />
    <glyph glyph-name="scaron" unicode="&#x161;" horiz-adv-x="1034" 
d="M92 737v94q0 131 65 199t243 68t489 -29v-86h-514q-102 0 -134 -36t-32 -116v-94q0 -100 43 -119q43 -20 123 -20h303q126 0 196 -68t70 -184v-100q0 -161 -86 -213q-71 -43 -160 -43q-90 0 -292 12t-269 21v83h570q7 0 35 8q84 23 85 132v100q0 137 -149 137h-303
q-155 0 -219 51t-64 203zM236 1497h108l186 -176l181 176h108l-231 -266h-113z" />
    <glyph glyph-name="Tcommaaccent" unicode="&#x162;" horiz-adv-x="1200" 
d="M94 1382v117h1047v-117h-471v-1382h-117v1382h-459zM659 -98q0 -158 -42 -218t-164 -61h-91v55l95 25q57 16 80 60t20 139h102z" />
    <glyph glyph-name="tcommaaccent" unicode="&#x163;" horiz-adv-x="753" 
d="M45 973v86l193 31l30 303h86v-303h332v-117h-332v-586q0 -204 90 -253q20 -12 115 -32t109 -20v-82h-166q-264 0 -264 387v586h-193zM477 -104q0 -160 -42 -220t-165 -59h-88v55l92 23q57 16 80 61t21 140h102z" />
    <glyph glyph-name="Tcaron" unicode="&#x164;" horiz-adv-x="1200" 
d="M94 1382v117h1047v-117h-471v-1382h-117v1382h-459zM311 1898h109l186 -176l180 176h109l-231 -266h-111z" />
    <glyph glyph-name="tcaron" unicode="&#x165;" horiz-adv-x="731" 
d="M498 1591l100 45l18 -90l-16 -227l-76 -94l-20 182zM45 973v86l193 31l30 303h86v-303h332v-117h-332v-584q0 -160 45 -215q23 -27 43 -38q20 -10 116 -32t110 -22v-80h-170q-82 0 -138 36q-55 36 -89 124t-33 227v584h-193z" />
    <glyph glyph-name="Tbar" unicode="&#x166;" horiz-adv-x="1200" 
d="M80 1382v117h1046v-117h-471v-487h267v-82h-267v-813h-116v813h-252v82h252v487h-459z" />
    <glyph glyph-name="tbar" unicode="&#x167;" horiz-adv-x="731" 
d="M45 973v86l193 31l30 303h86v-303h332v-117h-332v-307h230v-82h-230v-195q0 -126 20 -183q20 -56 75 -75q13 -5 107 -25t99 -20v-84h-155q-139 0 -201 87q-61 87 -61 300v195h-166v82h166v307h-193z" />
    <glyph glyph-name="Utilde" unicode="&#x168;" horiz-adv-x="1390" 
d="M184 655v844h117v-844q0 -346 87 -446q34 -39 61 -59q59 -44 243 -44q183 0 226 16q92 36 125 84q58 85 71 152q31 149 31 297v844h117v-844q0 -405 -134 -539q-47 -48 -85 -73q-81 -53 -282 -53h-48q-252 0 -326 52q-35 24 -80 72t-67 118q-56 172 -56 423zM377 1702
q51 42 79 64q79 61 154 63q51 -2 128 -49q76 -47 96 -48q63 -3 175 69q19 13 25 16l35 -62q-37 -27 -49 -39q-94 -90 -180 -90q-57 2 -129 50t-108 47q-35 -1 -65 -11t-70 -36t-60 -34z" />
    <glyph glyph-name="utilde" unicode="&#x169;" 
d="M115 330v757h116v-757q1 -106 61 -168t168 -64q108 0 190 27t216 94v868h117v-1087h-80l-37 127q-78 -45 -129 -72t-130 -51t-156 -22q-156 0 -246 102t-90 246zM662 1327q60 0 118 36q18 11 26 16t30 17q20 12 24 15l35 -61q-27 -18 -48 -38q-103 -98 -181 -89
q-55 2 -127 49t-108 47q-35 0 -65 -11t-71 -36t-62 -35l-30 61q153 129 233 127q51 -4 129 -51q79 -47 97 -47z" />
    <glyph glyph-name="Umacron" unicode="&#x16a;" horiz-adv-x="1390" 
d="M184 655v844h117v-844q0 -346 87 -446q34 -39 61 -59q59 -44 243 -44q183 0 226 16q92 36 125 84q58 85 71 152q31 149 31 297v844h117v-844q0 -405 -134 -539q-47 -48 -85 -73q-81 -53 -282 -53h-48q-252 0 -326 52q-35 24 -80 72t-67 118q-56 172 -56 423zM438 1632v97
h570v-97h-570z" />
    <glyph glyph-name="umacron" unicode="&#x16b;" 
d="M115 330v757h116v-757q1 -106 61 -168t168 -64q108 0 190 27t216 94v868h117v-1087h-80l-37 127q-78 -45 -129 -72t-130 -51t-156 -22q-156 0 -246 102t-90 246zM264 1221v96h570v-96h-570z" />
    <glyph glyph-name="Ubreve" unicode="&#x16c;" horiz-adv-x="1390" 
d="M184 655v844h117v-844q0 -346 87 -446q34 -39 61 -59q59 -44 243 -44q183 0 226 16q92 36 125 84q58 85 71 152q31 149 31 297v844h117v-844q0 -405 -134 -539q-47 -48 -85 -73q-81 -53 -282 -53h-48q-252 0 -326 52q-35 24 -80 72t-67 118q-56 172 -56 423zM487 1866h74
q0 -68 48 -114t115 -46t114 44t47 116h73q0 -113 -73 -172q-73 -60 -163 -61q-91 -1 -163 64t-72 169z" />
    <glyph glyph-name="ubreve" unicode="&#x16d;" 
d="M115 330v757h116v-757q1 -106 61 -168t168 -64q108 0 190 27t216 94v868h117v-1087h-80l-37 127q-78 -45 -129 -72t-130 -51t-156 -22q-156 0 -246 102t-90 246zM324 1454h73q0 -68 48 -114t116 -46t115 44t47 116h72q0 -163 -153 -218q-42 -15 -85 -15q-87 0 -160 62
t-73 171z" />
    <glyph glyph-name="Uring" unicode="&#x16e;" horiz-adv-x="1390" 
d="M184 655v844h117v-844q0 -346 87 -446q34 -39 61 -59q59 -44 243 -44q183 0 226 16q92 36 125 84q58 85 71 152q31 149 31 297v844h117v-844q0 -405 -134 -539q-47 -48 -85 -73q-81 -53 -282 -53h-48q-252 0 -326 52q-35 24 -80 72t-67 118q-56 172 -56 423zM588 1850
q0 -87 68 -125q32 -17 78 -17t84 39t38 94t-38 95t-94 40t-96 -40t-40 -86zM516 1841q0 57 28 105t76 78q48 28 104 28t103 -29q103 -64 103 -182q0 -88 -60 -148q-60 -61 -130 -61q-72 0 -120 28t-76 76t-28 105z" />
    <glyph glyph-name="uring" unicode="&#x16f;" 
d="M115 330v757h116v-757q1 -106 61 -168t168 -64q108 0 190 27t216 94v868h117v-1087h-80l-37 127q-78 -45 -129 -72t-130 -51t-156 -22q-156 0 -246 102t-90 246zM414 1430q0 -54 41 -94t86 -40q85 0 125 66q18 31 18 72t-20 66q-51 65 -109 65q-59 0 -100 -40t-41 -95z
M342 1437q0 50 28 98q62 105 195 105q72 0 131 -61q60 -61 60 -149t-60 -148t-146 -61q-88 0 -148 60t-60 156z" />
    <glyph glyph-name="Uhungarumlaut" unicode="&#x170;" horiz-adv-x="1390" 
d="M184 655v844h117v-844q0 -346 87 -446q34 -39 61 -59q59 -44 243 -44q183 0 226 16q92 36 125 84q58 85 71 152q31 149 31 297v844h117v-844q0 -405 -134 -539q-47 -48 -85 -73q-81 -53 -282 -53h-48q-252 0 -326 52q-35 24 -80 72t-67 118q-56 172 -56 423zM811 1632
l229 273h146l-273 -273h-102zM532 1632l228 273h147l-272 -273h-103z" />
    <glyph glyph-name="uhungarumlaut" unicode="&#x171;" 
d="M115 330v757h116v-757q1 -106 61 -168t168 -64q108 0 190 27t216 94v868h117v-1087h-80l-37 127q-78 -45 -129 -72t-130 -51t-156 -22q-156 0 -246 102t-90 246zM637 1221l229 272h146l-273 -272h-102zM358 1221l228 272h147l-272 -272h-103z" />
    <glyph glyph-name="Uogonek" unicode="&#x172;" horiz-adv-x="1390" 
d="M184 655v844h117v-844q0 -346 87 -446q34 -39 61 -59q59 -44 243 -44q183 0 226 16q92 36 125 84q58 85 71 152q31 149 31 297v844h117v-844q0 -405 -134 -539q-47 -48 -85 -73q-81 -53 -297 -53q-90 -59 -118 -125t12 -109t136 -45v-90q-68 -9 -128 13t-92 66
q-75 103 2 200q43 54 128 90q-225 0 -299 52q-35 24 -80 72t-67 118q-56 172 -56 423z" />
    <glyph glyph-name="uogonek" unicode="&#x173;" horiz-adv-x="1175" 
d="M131 330v757h117v-757q0 -106 60 -168t168 -64q108 0 190 27t217 94v868h116v-1087h-8q-92 -59 -122 -125q-31 -65 11 -109t138 -45v-92q-70 -8 -130 15q-60 24 -91 66q-74 102 2 199q43 54 131 91h-10l-37 127q-78 -45 -128 -72t-130 -51t-158 -22q-156 0 -246 102
t-90 246z" />
    <glyph glyph-name="Wcircumflex" unicode="&#x174;" horiz-adv-x="1976" 
d="M102 1499h129l463 -1309l416 1309h131l-164 -526l295 -791l424 1317h127l-485 -1499h-125l-297 780l-258 -780h-125zM735 1626l250 266h109l225 -266h-109l-174 176l-192 -176h-109z" />
    <glyph glyph-name="wcircumflex" unicode="&#x175;" horiz-adv-x="1624" 
d="M45 1087h129l348 -917l318 917h127l-125 -368l252 -549l358 917h127l-422 -1087h-119l-254 563l-198 -563h-127zM535 1214l249 267h111l223 -267h-108l-174 177l-193 -177h-108z" />
    <glyph glyph-name="Ycircumflex" unicode="&#x176;" horiz-adv-x="1282" 
d="M705 0h-117v532l-486 967h129l414 -825l457 825h127l-524 -967v-532zM360 1626l250 266h111l223 -266h-108l-174 176l-191 -176h-111z" />
    <glyph glyph-name="ycircumflex" unicode="&#x177;" horiz-adv-x="1116" 
d="M47 1087h129l277 -849q43 -125 141 -119l18 2l326 966h129l-479 -1431l-133 -209h-70l186 553q-176 2 -243 225zM266 1221l250 266h111l223 -266h-109l-174 176l-192 -176h-109z" />
    <glyph glyph-name="Ydieresis" unicode="&#x178;" horiz-adv-x="1282" 
d="M705 0h-117v532l-486 967h129l414 -825l457 825h127l-524 -967v-532zM934 1794q30 0 52 -24t22 -58t-24 -56q-24 -24 -56 -24t-58 24q-24 24 -24 52q0 29 11 46q11 16 29 28t48 12zM326 1713q0 33 24 57t57 24q35 0 57 -24t22 -58t-24 -56q-24 -24 -56 -24t-56 24t-24 57
z" />
    <glyph glyph-name="Zacute" unicode="&#x179;" horiz-adv-x="1142" 
d="M80 0v117l838 1265h-838v117h989v-117l-838 -1265h838v-117h-989zM537 1632l229 273h145l-272 -273h-102z" />
    <glyph glyph-name="zacute" unicode="&#x17a;" horiz-adv-x="946" 
d="M68 971v116h811v-116l-627 -852h627v-117h-779v117l633 852h-665zM424 1217l227 272h148l-273 -272h-102z" />
    <glyph glyph-name="Zdotaccent" unicode="&#x17b;" horiz-adv-x="1142" 
d="M80 0v117l838 1265h-838v117h989v-117l-838 -1265h838v-117h-989zM498 1671v117q0 43 39 43h75q39 0 39 -43v-117q0 -39 -39 -39h-75q-15 0 -27 12t-12 27z" />
    <glyph glyph-name="zdotaccent" unicode="&#x17c;" horiz-adv-x="946" 
d="M68 971v116h811v-116l-627 -852h627v-117h-779v117l633 852h-665zM395 1260v116q0 43 41 43h76q39 0 39 -43v-116q0 -39 -39 -39h-76q-16 -1 -28 11t-13 28z" />
    <glyph glyph-name="Zcaron" unicode="&#x17d;" horiz-adv-x="1142" 
d="M80 0v117l838 1265h-838v117h989v-117l-838 -1265h838v-117h-989zM283 1898h108l187 -176l180 176h108l-231 -266h-113z" />
    <glyph glyph-name="zcaron" unicode="&#x17e;" horiz-adv-x="946" 
d="M68 971v116h811v-116l-627 -852h627v-117h-779v117l633 852h-665zM197 1487h108l187 -176l180 176h108l-231 -266h-111z" />
    <glyph glyph-name="florin" unicode="&#x192;" horiz-adv-x="1218" 
d="M231 -301q84 0 135 81q52 81 76 185q24 105 41 215l101 649h-209l20 119h209l14 88q51 347 141 475q91 129 222 127q101 0 193 -43l-13 -73h-180q-62 0 -105 -50q-42 -50 -59 -103q-49 -146 -78 -333l-14 -90h291l-21 -117h-290l-101 -649q-41 -265 -83 -371t-112 -165
q-69 -60 -178 -62q-53 0 -111 16t-75 27l12 74h174z" />
    <glyph glyph-name="circumflex" unicode="&#x2c6;" horiz-adv-x="813" 
d="M115 1087l250 267h110l223 -267h-108l-174 177l-191 -177h-110z" />
    <glyph glyph-name="caron" unicode="&#x2c7;" horiz-adv-x="813" 
d="M115 1354h108l187 -176l180 176h108l-231 -267h-113z" />
    <glyph glyph-name="breve" unicode="&#x2d8;" horiz-adv-x="696" 
d="M115 1319h73q0 -68 48 -114t116 -46t114 44t46 116h74q0 -163 -153 -218q-42 -15 -85 -16q-90 0 -162 65q-71 65 -71 169z" />
    <glyph glyph-name="dotaccent" unicode="&#x2d9;" horiz-adv-x="382" 
d="M111 1153v117q0 43 41 43h75q39 0 39 -43v-117q0 -39 -39 -39h-75q-18 0 -30 11q-11 12 -11 28z" />
    <glyph glyph-name="ring" unicode="&#x2da;" horiz-adv-x="643" 
d="M188 1294q0 -55 40 -94t96 -39t94 39q39 39 39 94q0 56 -39 96t-94 40t-96 -40q-40 -41 -40 -96zM115 1294q1 58 29 106t76 77t104 29t104 -30q47 -28 75 -76q27 -48 27 -121t-60 -133t-130 -60q-133 -1 -197 103q-28 48 -28 105z" />
    <glyph glyph-name="ogonek" unicode="&#x2db;" horiz-adv-x="481" 
d="M281 0h61q-92 -59 -122 -126t11 -110t138 -45v-90q-70 -10 -130 13q-118 45 -127 160q-5 50 38 106t131 92z" />
    <glyph glyph-name="tilde" unicode="&#x2dc;" horiz-adv-x="919" 
d="M574 1200q44 0 72 14l46 23l27 15q9 6 29 18t26 16l33 -61q-10 -10 -58 -50q-48 -39 -88 -59t-89 -19t-121 49t-108 47q-35 -1 -65 -11t-71 -36t-62 -36l-30 61q51 43 79 65q79 62 142 61t141 -49q77 -48 97 -48z" />
    <glyph glyph-name="hungarumlaut" unicode="&#x2dd;" horiz-adv-x="751" 
d="M326 1087l227 273h147l-272 -273h-102zM45 1087l229 273h148l-272 -273h-105z" />
    <glyph glyph-name="uni0338" unicode="&#x338;" horiz-adv-x="1327" 
d="M512 117h315q225 0 226 215v835q0 92 -39 142l-631 -1155q53 -37 129 -37zM276 332q0 -70 31 -119l625 1141q-37 29 -105 28h-315q-115 0 -175 -58t-61 -157v-835zM160 332v835q0 160 99 246t253 86h315q176 0 259 -92t83 -240v-835q0 -332 -342 -332h-315
q-150 0 -251 77t-101 255z" />
    <glyph glyph-name="Omega" unicode="&#x3a9;" horiz-adv-x="1603" 
d="M190 451q-43 105 -43 333q0 377 192 569q71 71 191 115t243 45q124 0 204 -15q136 -26 253 -117q88 -70 139 -185t64 -227q13 -113 13 -199q0 -185 -57 -355t-236 -294l303 -23v-98h-467v123q210 139 275 292q65 154 65 373q0 336 -155 486q-127 123 -371 123
q-539 0 -539 -619q0 -116 11 -190q25 -167 153 -304q68 -73 182 -161v-123h-450v100l307 23q-158 106 -222 219q-34 59 -55 109z" />
    <glyph glyph-name="pi" unicode="&#x3c0;" horiz-adv-x="1282" 
d="M45 971v116h1092v-116h-265v-631q0 -184 90 -219q30 -12 70 -12h203v-70q-115 -49 -203 -49q-139 0 -208 78t-68 272v631h-418v-971h-117v971h-176z" />
    <glyph glyph-name="uni1E02" unicode="&#x1e02;" horiz-adv-x="1222" 
d="M301 844h440q127 0 199 70t74 200q2 268 -273 268h-440v-538zM301 117h440q279 0 279 305q0 129 -76 217t-203 86h-440v-608zM184 0v1499h557q215 0 302 -115t87 -256t-56 -231t-159 -117q82 -18 152 -111t70 -258t-79 -280q-90 -131 -317 -131h-557zM559 1667v115
q0 43 41 43h74q41 0 41 -43v-115q0 -41 -41 -41h-74q-18 0 -30 11q-11 12 -11 30z" />
    <glyph glyph-name="uni1E03" unicode="&#x1e03;" horiz-adv-x="1132" 
d="M653 987q-186 0 -401 -55v-727q227 -100 401 -101q115 0 183 110t68 350q-2 334 -150 404q-42 20 -101 19zM137 0v1608h113v-586q92 38 210 60t194 22q151 0 233 -85q80 -86 106 -213q27 -127 27 -285t-35 -259q-35 -100 -75 -153q-91 -121 -257 -121q-94 0 -223 47
t-178 86l-33 -121h-82zM162 1743q-41 0 -41 39v116q0 43 41 44h74q41 0 40 -44v-116q0 -39 -40 -39h-74z" />
    <glyph glyph-name="uni1E0A" unicode="&#x1e0a;" horiz-adv-x="1353" 
d="M301 121h426q106 0 188 53q149 96 203 342q25 109 25 229q0 637 -416 637h-426v-1261zM184 0v1499h543q176 0 281 -76q106 -76 158 -187q89 -185 94 -493q0 -223 -76 -407q-141 -336 -457 -336h-543zM590 1679v115q0 43 41 43h76q39 0 38 -43v-115q0 -41 -38 -41h-76
q-41 0 -41 41z" />
    <glyph glyph-name="uni1E0B" unicode="&#x1e0b;" horiz-adv-x="1132" 
d="M479 104q174 0 402 101v727q-215 55 -402 55q-148 0 -198 -122t-50 -334q0 -211 67 -319t181 -108zM483 -12q-368 0 -368 561q0 298 102 437q39 52 106 85t149 33t201 -23q118 -23 210 -59v586h112v-1608h-80l-34 121q-47 -39 -177 -86t-221 -47zM899 1733q-41 0 -41 39
v116q0 41 41 41h76q39 0 39 -41v-116q0 -39 -39 -39h-76z" />
    <glyph glyph-name="uni1E1E" unicode="&#x1e1e;" horiz-adv-x="1171" 
d="M184 0v1233q0 141 73 206t185 60l633 -29v-88h-633q-80 0 -110 -38t-31 -111v-428l692 -17v-90l-692 -16v-682h-117zM563 1686v116q0 43 41 43h74q41 0 41 -43v-116q0 -39 -41 -39h-74q-18 0 -30 11q-11 12 -11 28z" />
    <glyph glyph-name="uni1E1F" unicode="&#x1e1f;" horiz-adv-x="806" 
d="M45 971v86l193 30v203q0 172 56 246t175 74q160 0 293 -41v-74h-264q-97 4 -120 -54q-24 -58 -24 -151v-203h324v-116h-324v-971h-116v971h-193zM440 1800v117q0 41 41 41h74q41 0 41 -41v-117q0 -39 -41 -39h-74q-41 0 -41 39z" />
    <glyph glyph-name="uni1E40" unicode="&#x1e40;" horiz-adv-x="1636" 
d="M125 0l123 1499h162l411 -1304l402 1304h163l134 -1499h-117l-117 1298l-401 -1298h-121l-414 1298l-108 -1298h-117zM739 1671v117q0 43 41 43h74q41 0 41 -43v-117q0 -39 -41 -39h-74q-24 0 -32 14t-9 25z" />
    <glyph glyph-name="uni1E41" unicode="&#x1e41;" horiz-adv-x="1861" 
d="M137 0v1087h80l37 -129q189 112 294 133q54 11 134 11t160 -44t116 -118q123 96 282 138q87 24 171 24q147 0 241 -100t95 -250v-752h-117v752q0 102 -60 168t-170 66q-208 -1 -413 -126q10 -27 10 -104v-756h-116v752q1 102 -61 168t-168 66t-184 -27q-78 -26 -214 -93
v-866h-117zM911 1264v116q0 43 41 43h76q39 0 39 -43v-116q0 -39 -39 -39h-76q-16 -1 -28 11t-13 28z" />
    <glyph glyph-name="uni1E56" unicode="&#x1e56;" horiz-adv-x="1191" 
d="M254 745h483q180 0 221 155q18 69 18 162q1 232 -114 292q-51 26 -125 26h-483v-635zM137 0v1499h600q159 0 240 -76q116 -109 119 -350q0 -375 -223 -431q-67 -15 -132 -15t-272 15t-215 20v-662h-117zM528 1708v117q0 43 41 43h76q39 0 39 -43v-117q0 -39 -39 -39h-76
q-17 -1 -29 11t-12 28z" />
    <glyph glyph-name="uni1E57" unicode="&#x1e57;" horiz-adv-x="1132" 
d="M653 983q-174 0 -401 -100v-727q215 -55 401 -56q116 0 183 93t67 332q1 239 -67 349t-183 109zM137 -551v1638h82l33 -120q47 39 177 86t220 47q241 0 327 -249q44 -127 44 -260q0 -134 -8 -209q-19 -177 -103 -288q-84 -112 -256 -110q-75 0 -193 22t-210 60v-617h-113
zM524 1278v117q0 41 41 41h74q41 0 41 -41v-117q0 -39 -41 -39h-74q-22 0 -36 18q-5 9 -5 21z" />
    <glyph glyph-name="uni1E60" unicode="&#x1e60;" horiz-adv-x="1196" 
d="M1102 319q0 -335 -378 -335q-106 0 -283 15t-251 30v90q199 -19 372 -19t207 3q143 13 196 117q20 42 20 99v140q0 109 -47 163t-160 54h-268q-257 0 -327 146q-33 69 -33 190v135q0 215 115 295q99 69 286 69q74 0 242 -16t251 -29v-90l-493 19q-141 6 -213 -44
t-72 -204v-135q0 -138 65 -183q37 -27 86 -30q50 -4 89 -4h272q197 0 264 -107q60 -93 60 -229v-140zM547 1688v116q0 41 41 41h76q39 0 38 -41v-116q0 -39 -38 -39h-76q-16 0 -29 10q-12 11 -12 29z" />
    <glyph glyph-name="uni1E61" unicode="&#x1e61;" horiz-adv-x="1034" 
d="M92 737v94q0 131 65 199t243 68t489 -29v-86h-514q-102 0 -134 -36t-32 -116v-94q0 -100 43 -119q43 -20 123 -20h303q126 0 196 -68t70 -184v-100q0 -161 -86 -213q-71 -43 -160 -43q-90 0 -292 12t-269 21v83h570q7 0 35 8q84 23 85 132v100q0 137 -149 137h-303
q-155 0 -219 51t-64 203zM512 1237q-41 0 -41 39v117q0 41 41 41h76q39 0 39 -41v-117q0 -39 -39 -39h-76z" />
    <glyph glyph-name="uni1E6A" unicode="&#x1e6a;" horiz-adv-x="1200" 
d="M94 1382v117h1047v-117h-471v-1382h-117v1382h-459zM524 1671v117q0 43 41 43h76q39 0 39 -43v-117q0 -39 -39 -39h-76q-21 0 -31 14t-10 25z" />
    <glyph glyph-name="uni1E6B" unicode="&#x1e6b;" horiz-adv-x="753" 
d="M45 973v86l193 31l30 303h86v-303h332v-117h-332v-586q0 -204 90 -253q20 -12 115 -32t109 -20v-82h-166q-264 0 -264 387v586h-193zM233 1556v117q0 41 41 41h76q39 0 39 -41v-117q0 -39 -39 -38h-76q-41 0 -41 38z" />
    <glyph glyph-name="Wgrave" unicode="&#x1e80;" horiz-adv-x="1976" 
d="M102 1499h129l463 -1309l416 1309h131l-164 -526l295 -791l424 1317h127l-485 -1499h-125l-297 780l-258 -780h-125zM702 1898h146l229 -272h-102z" />
    <glyph glyph-name="wgrave" unicode="&#x1e81;" horiz-adv-x="1624" 
d="M45 1087h129l348 -917l318 917h127l-125 -368l252 -549l358 917h127l-422 -1087h-119l-254 563l-198 -563h-127zM502 1487h147l228 -273h-103z" />
    <glyph glyph-name="Wacute" unicode="&#x1e82;" horiz-adv-x="1976" 
d="M102 1499h129l463 -1309l416 1309h131l-164 -526l295 -791l424 1317h127l-485 -1499h-125l-297 780l-258 -780h-125zM977 1626l227 272h148l-273 -272h-102z" />
    <glyph glyph-name="wacute" unicode="&#x1e83;" horiz-adv-x="1624" 
d="M45 1087h129l348 -917l318 917h127l-125 -368l252 -549l358 917h127l-422 -1087h-119l-254 563l-198 -563h-127zM776 1214l228 273h147l-272 -273h-103z" />
    <glyph glyph-name="Wdieresis" unicode="&#x1e84;" horiz-adv-x="1976" 
d="M102 1499h129l463 -1309l416 1309h131l-164 -526l295 -791l424 1317h127l-485 -1499h-125l-297 780l-258 -780h-125zM1206 1714q0 28 25 50t59 22t56 -23t22 -57t-24 -56q-24 -24 -51 -24q-28 0 -46 10q-41 23 -41 78zM686 1716q0 26 24 48t58 22t56 -23t22 -57t-24 -56
q-24 -24 -48 -24q-88 0 -88 90z" />
    <glyph glyph-name="wdieresis" unicode="&#x1e85;" horiz-adv-x="1624" 
d="M45 1087h129l348 -917l318 917h127l-125 -368l252 -549l358 917h127l-422 -1087h-119l-254 563l-198 -563h-127zM1008 1302q0 28 23 50q24 22 58 22q35 0 57 -22t22 -57q0 -33 -24 -57q-22 -24 -50 -24t-46 11q-40 22 -40 77zM485 1295q0 34 24 57q23 22 57 22t57 -22
t23 -57q0 -33 -24 -57q-22 -24 -56 -24t-58 24t-23 57z" />
    <glyph glyph-name="Ygrave" unicode="&#x1ef2;" horiz-adv-x="1282" 
d="M705 0h-117v532l-486 967h129l414 -825l457 825h127l-524 -967v-532zM342 1905h147l228 -273h-103z" />
    <glyph glyph-name="ygrave" unicode="&#x1ef3;" horiz-adv-x="1116" 
d="M47 1087h129l277 -849q43 -125 141 -119l18 2l326 966h129l-479 -1431l-133 -209h-70l186 553q-176 2 -243 225zM248 1493h145l230 -272h-103z" />
    <glyph glyph-name="endash" unicode="&#x2013;" horiz-adv-x="1058" 
d="M45 528v119h969v-119h-969z" />
    <glyph glyph-name="emdash" unicode="&#x2014;" horiz-adv-x="1515" 
d="M45 532v119h1425v-119h-1425z" />
    <glyph glyph-name="quoteleft" unicode="&#x2018;" horiz-adv-x="481" 
d="M154 1163v207q0 47 21 87t87 52q25 4 57 0v-53q-37 2 -48 -15t-11 -42v-64h23q47 0 47 -49v-123q0 -51 -47 -51h-84q-45 0 -45 51z" />
    <glyph glyph-name="quoteright" unicode="&#x2019;" horiz-adv-x="481" 
d="M201 1288q-47 0 -47 49v123q0 53 49 53h82q47 0 47 -53l-2 -207q0 -49 -18 -81t-42 -43q-60 -26 -106 -15v51q59 -2 59 60v63h-22z" />
    <glyph glyph-name="quotesinglbase" unicode="&#x201a;" horiz-adv-x="481" 
d="M154 47v123q0 53 47 53h84q45 0 45 -53v-205q0 -99 -57 -127q-57 -27 -109 -14v51q59 -2 59 62v61h-22q-20 0 -34 13q-13 13 -13 36z" />
    <glyph glyph-name="quotedblleft" unicode="&#x201c;" horiz-adv-x="741" 
d="M139 1163v207q0 121 109 139q24 4 59 0v-53q-59 2 -59 -57v-64h20q49 0 49 -49v-123q0 -51 -49 -51h-84q-45 0 -45 51zM557 1335q45 0 45 -49v-123q0 -51 -45 -51h-84q-47 0 -47 51v207q0 47 17 80q38 73 151 59v-53q-59 4 -59 -57v-64h22z" />
    <glyph glyph-name="quotedblright" unicode="&#x201d;" horiz-adv-x="741" 
d="M426 1337v123q0 53 49 53h84q43 0 43 -53v-207q0 -99 -59 -125t-107 -14v51q59 -2 60 60v63h-21q-27 0 -38 16t-11 33zM139 1337v123q0 53 47 53h84q47 0 47 -53v-207q0 -98 -60 -124t-107 -15v51q57 -2 57 60v63h-21q-20 0 -34 12t-13 37z" />
    <glyph glyph-name="quotedblbase" unicode="&#x201e;" horiz-adv-x="741" 
d="M426 49v123q0 53 49 53h84q43 0 43 -53v-207q0 -101 -53 -124q-53 -24 -113 -17v53q59 -2 60 60v63h-21q-27 0 -38 16t-11 33zM139 49v123q0 53 47 53h84q47 0 47 -53v-207q0 -49 -21 -89t-87 -52q-26 -4 -59 0v53q57 -2 57 60v63h-21q-20 0 -34 12t-13 37z" />
    <glyph glyph-name="dagger" unicode="&#x2020;" horiz-adv-x="794" 
d="M45 1018v90l293 14l14 455h94l15 -455l289 -14v-90l-289 -17l-17 -1148h-94l-12 1148z" />
    <glyph glyph-name="daggerdbl" unicode="&#x2021;" horiz-adv-x="841" 
d="M45 371v88l295 16l-2 526l-293 17v90l293 14l14 455h94l15 -455l289 -14v-90l-289 -17l-6 -526l295 -16v-88l-297 -19l-9 -499h-94l-8 499z" />
    <glyph glyph-name="bullet" unicode="&#x2022;" horiz-adv-x="645" 
d="M195 717v127q0 74 67 74h117q72 0 72 -74v-127q0 -66 -72 -66h-117q-31 -1 -49 17t-18 49z" />
    <glyph glyph-name="ellipsis" unicode="&#x2026;" horiz-adv-x="1665" 
d="M190 39v121q0 43 41 43h80q41 0 41 -43v-121q0 -39 -41 -39h-80q-17 0 -29 12t-12 27zM748 39v121q0 43 40 43h80q41 0 41 -43v-121q0 -39 -41 -39h-80q-18 0 -29 12t-11 27zM1305 39v121q0 43 41 43h79q41 0 41 -43v-121q0 -39 -41 -39h-79q-18 0 -30 11q-11 12 -11 28z
" />
    <glyph glyph-name="perthousand" unicode="&#x2030;" horiz-adv-x="2826" 
d="M2099 260q0 -92 35 -125t127 -33h207q98 0 132 33t34 125v272q0 90 -35 124t-127 34h-207q-100 0 -133 -32t-33 -126v-272zM2001 260v272q1 92 23 146q47 112 241 110h207q144 0 202 -60t58 -196v-272q0 -90 -24 -144q-50 -112 -240 -112h-207q-147 0 -203 60t-57 196z
M1227 260q0 -92 36 -125t126 -33h206q98 0 132 33t34 125v272q0 118 -64 144q-34 14 -98 14h-206q-100 0 -133 -32t-33 -126v-272zM1128 260v272q0 136 58 196t207 60h206q145 0 203 -60t58 -196v-272q0 -135 -58 -195t-207 -61h-206q-145 0 -203 60t-58 196zM475 0
l897 1499h111l-897 -1499h-111zM195 971q-1 -92 35 -125t126 -33h207q98 0 132 33t34 125v272q0 117 -64 143q-34 14 -98 15h-207q-68 -1 -102 -15t-49 -47q-14 -33 -14 -96v-272zM96 971v272q0 135 58 195t206 61h207q145 0 203 -60t57 -196v-272q0 -135 -57 -195t-207 -61
h-207q-144 1 -202 61t-58 195z" />
    <glyph glyph-name="guilsinglleft" unicode="&#x2039;" horiz-adv-x="727" 
d="M115 725l422 416l81 -82l-342 -334l353 -344l-82 -82z" />
    <glyph glyph-name="guilsinglright" unicode="&#x203a;" horiz-adv-x="727" 
d="M115 381l352 344l-342 334l82 82l422 -416l-432 -426z" />
    <glyph glyph-name="fraction" unicode="&#x2044;" horiz-adv-x="425" 
d="M-207 0l739 1526h101l-739 -1526h-101z" />
    <glyph glyph-name="zerosuperior" unicode="&#x2070;" horiz-adv-x="987" 
d="M236 1028q0 -105 59 -126q31 -11 90 -11h223q90 0 118 31t28 106v506q0 72 -31 104t-115 33h-223q-86 0 -118 -33t-31 -104v-506zM137 1020v522q0 162 113 206q51 19 127 19h239q231 0 232 -225v-522q0 -135 -58 -180t-174 -45h-239q-178 0 -220 104q-20 47 -20 121z" />
    <glyph glyph-name="foursuperior" unicode="&#x2074;" horiz-adv-x="847" 
d="M598 1176v247l43 99h53v-346h121v-76l-121 -25v-278h-96v278h-528l-33 39l414 653h110l-373 -591h410z" />
    <glyph glyph-name="fivesuperior" unicode="&#x2075;" horiz-adv-x="880" 
d="M788 1020q0 -234 -223 -234q-301 0 -440 25v74h432q135 0 135 143v115q0 60 -13 89q-24 54 -118 54h-231q-51 0 -86 -32t-35 -85h-84l31 598h604v-96h-514l-19 -348q48 70 274 61q52 -2 64 -2q223 0 223 -231v-131z" />
    <glyph glyph-name="sixsuperior" unicode="&#x2076;" horiz-adv-x="921" 
d="M221 1255q0 -251 86 -330q35 -32 84 -32h217q125 0 125 129v133q0 61 -30 81t-95 19h-387zM797 1683h-416q-78 0 -111 -70t-40 -150q-7 -79 -9 -134q219 23 369 23t194 -50q45 -50 45 -141v-149q0 -106 -58 -160t-157 -55h-219q-157 0 -220 142q-50 112 -50 370
q6 327 108 417q35 31 67 41t77 13q195 10 420 -21v-76z" />
    <glyph glyph-name="sevensuperior" unicode="&#x2077;" horiz-adv-x="757" 
d="M35 1675v97h657l31 -54l-373 -921h-108l358 878h-565z" />
    <glyph glyph-name="eightsuperior" unicode="&#x2078;" horiz-adv-x="983" 
d="M248 1464q0 -123 123 -127h241q66 0 97 36t30 91v66q0 88 -33 120q-34 32 -110 31h-199q-107 0 -134 -59q-15 -33 -15 -92v-66zM612 891q127 0 127 123v102q0 88 -74 116q-22 7 -44 7h-242q-61 0 -96 -31t-35 -90v-104q0 -89 53 -111q29 -12 82 -12h229zM152 1006v118
q0 66 37 103q38 37 87 47q-44 12 -74 44q-50 54 -50 138v82q0 133 62 186t175 54h225q111 0 166 -56t56 -184v-82q2 -47 -25 -96t-90 -62q49 -8 82 -62t33 -112v-118q0 -213 -215 -213h-246q-129 -1 -176 57t-47 156z" />
    <glyph glyph-name="ninesuperior" unicode="&#x2079;" horiz-adv-x="921" 
d="M199 1421q0 -61 29 -81q30 -19 96 -19h387q0 362 -166 362h-221q-125 0 -125 -129v-133zM102 1415v150q0 106 60 160t155 55h220q157 0 220 -144q54 -123 50 -368q0 -321 -106 -418q-35 -31 -67 -41t-77 -12q-238 -14 -422 20v76h416q101 0 130 113q30 113 30 241
q-217 -25 -367 -25t-196 52q-46 51 -46 141z" />
    <glyph glyph-name="zeroinferior" unicode="&#x2080;" horiz-adv-x="987" 
d="M236 -176q0 -82 32 -110t117 -27h223q90 1 118 31t28 106v506q0 72 -31 104t-115 33h-223q-86 0 -118 -33t-31 -104v-506zM137 -184v522q-1 123 61 174t179 51h239q231 0 232 -225v-522q0 -134 -58 -180t-174 -46h-239q-178 0 -220 105q-20 47 -20 121z" />
    <glyph glyph-name="oneinferior" unicode="&#x2081;" horiz-adv-x="542" 
d="M395 567v-975h-96v869l-262 -78v72l262 112h96z" />
    <glyph glyph-name="twoinferior" unicode="&#x2082;" horiz-adv-x="808" 
d="M72 483q-2 0 -2 19t2 53q209 25 374 25q266 0 267 -279q0 -242 -443 -600q-10 -8 -14 -12h455v-97h-633v89q10 8 107 82t189 161q93 88 133 138q107 135 106 232t-41 143t-144 46h-356z" />
    <glyph glyph-name="threeinferior" unicode="&#x2083;" horiz-adv-x="851" 
d="M618 -117q0 78 -49 116t-120 40l-291 10v70l291 12q81 4 127 42t47 103v54q0 145 -168 145h-387v64q90 30 208 30h193q125 -1 186 -67t62 -168v-72q0 -70 -40 -119t-85 -63q125 -61 125 -195v-57q-1 -119 -59 -181t-201 -63q-282 0 -381 33l2 61l362 3q98 0 139 34
q40 35 39 121v47z" />
    <glyph glyph-name="fourinferior" unicode="&#x2084;" horiz-adv-x="847" 
d="M598 -29v248l43 98h53v-346h121v-75l-121 -25v-279h-96v279h-528l-33 39l414 653h110l-373 -592h410z" />
    <glyph glyph-name="fiveinferior" unicode="&#x2085;" horiz-adv-x="880" 
d="M788 -184q0 -234 -223 -234q-301 0 -440 25v74h432q135 0 135 143v115q0 60 -13 89q-24 54 -118 54h-231q-51 0 -86 -32t-35 -85h-84l31 598h604v-96h-514l-19 -348q48 70 274 61q52 -2 64 -2q223 0 223 -231v-131z" />
    <glyph glyph-name="sixinferior" unicode="&#x2086;" horiz-adv-x="921" 
d="M221 51q0 -272 101 -341q31 -22 69 -21h217q125 0 125 129v133q0 61 -30 81t-95 19h-387zM797 479h-416q-131 0 -155 -256q-3 -43 -5 -98q219 23 369 23t194 -51q45 -50 45 -140v-150q0 -106 -58 -160t-157 -55h-219q-156 0 -220 143q-50 112 -50 369q7 406 175 459
q32 10 77 12q238 12 420 -20v-76z" />
    <glyph glyph-name="seveninferior" unicode="&#x2087;" horiz-adv-x="757" 
d="M35 471v96h657l31 -53l-373 -922h-108l358 879h-565z" />
    <glyph glyph-name="eightinferior" unicode="&#x2088;" horiz-adv-x="983" 
d="M248 260q0 -90 63 -116q27 -11 60 -11h241q66 0 97 36t30 91v66q0 114 -62 139q-30 12 -81 12h-199q-107 0 -134 -59q-15 -33 -15 -92v-66zM612 -313q127 0 127 123v102q0 61 -34 92q-35 31 -84 31h-242q-61 0 -96 -31t-35 -90v-104q0 -68 28 -96t107 -27h229zM152 -80
q0 66 37 103q38 37 87 47q-44 12 -74 44q-50 54 -50 138v82q0 133 62 186t175 53h225q111 0 166 -55t56 -184v-82q2 -47 -25 -96t-90 -62q49 -8 82 -62t33 -112v-119q0 -213 -215 -213h-246q-129 0 -176 58t-47 155v119z" />
    <glyph glyph-name="nineinferior" unicode="&#x2089;" horiz-adv-x="921" 
d="M199 217q0 -61 29 -81q30 -19 96 -19h387q0 362 -166 362h-221q-125 0 -125 -129v-133zM102 211v149q0 106 60 160t155 55h220q158 0 220 -143q54 -123 50 -369q0 -320 -106 -417q-35 -31 -67 -41t-77 -13q-233 -14 -422 21v76h416q101 0 130 112q30 112 30 242
q-217 -25 -367 -25t-196 52t-46 141z" />
    <glyph glyph-name="Euro" unicode="&#x20ac;" horiz-adv-x="1239" 
d="M225 996q0 42 3 90t28 138t71 146q46 55 144 100q98 46 205 46q237 1 510 -56v-88q-35 2 -175 14t-271 13q-215 0 -306 -86q-92 -86 -92 -365l514 -10v-74l-514 -10v-236l514 -12v-74q-33 0 -86 -1t-167 -3t-188 -4l-73 -2q0 -203 96 -309t267 -109q197 0 413 23l76 8
v-86q-231 -61 -489 -61q-126 0 -216 45t-141 100t-87 155t-36 234l-180 13v73l180 10v236l-180 12v68l180 14v48z" />
    <glyph glyph-name="afii61289" unicode="&#x2113;" horiz-adv-x="811" 
d="M301 1282v-520q90 107 127 167q38 60 64 104t46 127q20 82 -1 151q-9 41 -49 65t-80 22q-40 -1 -74 -31q-33 -30 -33 -85zM186 1294q0 100 67 160t155 59t146 -41q116 -81 115 -236q-1 -156 -103 -322t-265 -312v-215q4 -205 61 -243q27 -17 82 -27q0 -6 84 -21
q84 -16 88 -16v-80q0 -2 -42 -2t-85 2h-43q-139 0 -199 89t-61 298v121q-29 -27 -77 -51l-41 51q57 51 118 115v671z" />
    <glyph glyph-name="afii61352" unicode="&#x2116;" horiz-adv-x="2199" 
d="M164 0v1333q0 76 44 122q91 95 214 32q57 -31 84 -94l524 -1241q20 -51 66 -41q45 10 47 65v987q0 178 82 260t227 82l387 -2q152 -4 211 -91t59 -271q0 -185 -60 -273t-210 -88h-135q-158 0 -214 104t-56 376h96q0 -305 80 -360q35 -24 102 -23h119q92 0 137 54t45 202
q0 203 -74 244q-43 24 -112 24q-231 2 -379 2q-92 -1 -140 -63t-48 -173v-1005q0 -66 -42 -113t-96 -60t-112 15q-57 28 -86 96l-529 1246q-20 53 -66 42t-46 -67v-1321h-119z" />
    <glyph glyph-name="trademark" unicode="&#x2122;" horiz-adv-x="1425" 
d="M655 784l56 715h94l225 -549l201 549h96l64 -715h-95l-43 494l-180 -494h-80l-205 496l-36 -496h-97zM45 1403v96h530v-96h-215v-619h-96v619h-219z" />
    <glyph glyph-name="estimated" unicode="&#x212e;" horiz-adv-x="1507" 
d="M365 582q0 -19 18 -19q372 0 563 -1q190 -1 193 1q2 2 2 15v272q0 66 -129 134t-260 69q-78 0 -153 -23q-75 -22 -124 -54t-80 -64t-30 -50v-280zM371 528q-6 0 -6 -22v-273q0 -48 110 -119t271 -71q237 0 399 172h115q-119 -125 -235 -170t-271 -45q-283 0 -450 154
t-167 388t172 396q173 154 439 154q140 0 241 -33q100 -33 191 -103q178 -137 190 -428h-999z" />
    <glyph glyph-name="partialdiff" unicode="&#x2202;" horiz-adv-x="1341" 
d="M248 469q0 -117 54 -202q102 -161 325 -161q96 0 172 50t119 120q44 72 82 193t38 264q-59 33 -168 60t-217 26q-405 0 -405 -350zM131 465q0 231 133 351q134 120 376 120t396 -117q-10 313 -108 447t-324 133q-102 0 -200 -33t-168 -76l-35 72q84 57 132 83
q131 71 277 71q287 0 416 -188t129 -535q0 -408 -178 -637q-129 -166 -361 -166q-122 0 -234 50t-182 160t-69 265z" />
    <glyph glyph-name="uni2206" unicode="&#x2206;" horiz-adv-x="1490" 
d="M227 117h1045l-512 1222zM45 0l657 1499h113l631 -1499h-1401z" />
    <glyph glyph-name="product" unicode="&#x220f;" horiz-adv-x="1277" 
d="M45 1382v117h1190v-117h-178v-1382h-117v1382h-602v-1382h-117v1382h-176z" />
    <glyph glyph-name="summation" unicode="&#x2211;" horiz-adv-x="1185" 
d="M92 1499h1049v-117h-910l437 -829l-437 -840h910v-123h-1049v123l438 840l-438 829v117z" />
    <glyph glyph-name="minus" unicode="&#x2212;" horiz-adv-x="921" 
d="M45 672v114h832v-114h-832z" />
    <glyph glyph-name="radical" unicode="&#x221a;" horiz-adv-x="1259" 
d="M45 616v117h252l272 -565l529 1470h116l-583 -1638h-105l-301 616h-180z" />
    <glyph glyph-name="infinity" unicode="&#x221e;" horiz-adv-x="1632" 
d="M958 811q-53 -54 -90 -111q147 -238 326 -237q119 0 164 61q45 60 45 174q-1 114 -27 160q-46 78 -168 78q-123 0 -250 -125zM231 698q0 -181 107 -220q41 -15 102 -15q172 0 326 237q-64 96 -154 166t-172 70q-129 0 -169 -56t-40 -182zM115 698q0 198 82 276
q82 77 243 79q109 0 210 -73t167 -173q63 98 165 172t198 74q164 0 252 -75q66 -60 81 -176q6 -46 7 -104q0 -352 -326 -352q-121 0 -217 68t-162 184q-137 -252 -375 -252q-325 0 -325 352z" />
    <glyph glyph-name="integral" unicode="&#x222b;" horiz-adv-x="911" 
d="M45 -301h188q66 0 95 41q16 23 28 43q31 52 36 190t5 207v856q0 302 43 424q18 51 47 93q60 87 170 86t156 -20t53 -22v-75h-186q-63 0 -98 -51q-34 -51 -44 -98q-24 -125 -24 -337v-856q0 -324 -42 -434t-115 -143q-44 -20 -105 -21q-145 0 -207 41v76z" />
    <glyph glyph-name="approxequal" unicode="&#x2248;" horiz-adv-x="1046" 
d="M388 1012q54 0 146 -51t150 -52q59 -1 125 40q67 41 90 50l35 -61q-14 -10 -45 -37q-119 -104 -215 -104q-54 0 -146 51t-134 51q-79 0 -130 -28q-24 -11 -58 -29t-61 -29l-30 61q55 45 84 67q29 23 82 47t107 24zM534 599q92 -50 152 -50q61 0 126 39q64 39 87 49
l35 -62q-14 -10 -79 -64t-108 -64q-43 -11 -85 -11t-134 51t-139 51t-83 -10q-36 -12 -86 -39t-75 -36l-30 59q55 47 84 69q29 21 82 45t107 24t146 -51z" />
    <glyph glyph-name="notequal" unicode="&#x2260;" horiz-adv-x="964" 
d="M45 434v123h293l203 334h-496v123h569l95 153h96l-94 -153h209v-123h-285l-203 -334h488v-123h-562l-106 -176h-96l106 176h-217z" />
    <glyph glyph-name="lessequal" unicode="&#x2264;" horiz-adv-x="997" 
d="M115 829v121l747 353v-127l-592 -287l592 -307v-131zM115 229v117h772v-117h-772z" />
    <glyph glyph-name="greaterequal" unicode="&#x2265;" horiz-adv-x="997" 
d="M139 451v131l592 307l-592 287v127l748 -353v-121zM115 229v117h772v-117h-772z" />
    <glyph glyph-name="lozenge" unicode="&#x25ca;" horiz-adv-x="1077" 
d="M184 764l361 -612l350 612l-350 594zM45 764l442 735h117l428 -735l-428 -764h-117z" />
    <glyph glyph-name="f_f" unicode="&#xfb00;" horiz-adv-x="1581" 
d="M45 971v86l203 30v183q0 169 57 240q25 32 75 56q112 54 386 -22v-76l-240 7q-94 3 -128 -47t-33 -158v-183h647v203q0 172 56 246t186 74t282 -45v-76l-264 6q-107 6 -131 -83q-13 -49 -13 -122v-203h322v-116h-324v-973h-116v973h-650v-971h-116v971h-199z" />
    <glyph glyph-name="f_f_i" unicode="&#xfb03;" horiz-adv-x="1982" 
d="M45 971v86l203 30v183q0 169 57 240q25 32 75 56q112 54 386 -22v-76l-240 7q-123 4 -149 -91q-12 -43 -12 -114l-5 -183h625v109q-1 184 103 299t286 115q66 0 180 -18t199 -42v-75l-352 20q-127 5 -213 -65t-86 -234v-109l743 -18v-1069h-119v971h-626v-971h-117v971
h-623v-971h-116v971h-199z" />
    <glyph glyph-name="ffl" unicode="&#xfb04;" horiz-adv-x="2203" 
d="M45 971v86l203 30v183q0 169 57 240q25 32 75 56q112 54 386 -22v-76l-240 7q-94 3 -128 -47t-33 -158l-5 -183h623v109q0 290 179 379q67 33 155 33h530v-1219q0 -162 41 -214q23 -28 43 -38q20 -11 118 -33t112 -22v-80h-166q-94 0 -152 38q-114 76 -112 349v1108h-385
q-121 0 -184 -67q-62 -68 -62 -234v-109h299v-116h-303v-971h-117v971h-619v-971h-116v971h-199z" />
    <glyph glyph-name="s_t" unicode="&#xfb06;" horiz-adv-x="1785" 
d="M92 723v96q0 89 26 147q55 124 257 124h905l29 303h88v-303h332v-115h-332v-588q0 -127 15 -165t30 -62t43 -30q194 -46 213 -46v-84h-154q-141 0 -203 89q-61 89 -61 298v588h-905q-102 0 -134 -37t-32 -119v-96q0 -76 24 -102t63 -29q39 -2 79 -2h303q126 0 196 -67
t70 -181v-92q0 -158 -79 -210t-168 -52t-291 12t-269 20v84h541q150 0 149 146v92q0 131 -149 131h-303q-155 0 -219 49t-64 201z" />
    <glyph glyph-name="exclamdown.alt" horiz-adv-x="542" 
d="M203 0l12 1096h111l12 -1096h-135zM188 1337v121q0 39 39 39h82q25 0 33 -14t8 -25v-121q0 -43 -41 -43h-82q-39 0 -39 43z" />
    <glyph glyph-name="zero.oldstyle" horiz-adv-x="1329" 
d="M276 332q0 -109 66 -162t170 -53h315q225 0 226 215v629q0 215 -226 215h-315q-115 0 -175 -58t-61 -157v-629zM160 332v629q0 159 99 245t253 86h315q178 0 260 -90t82 -241v-629q0 -332 -342 -332h-315q-150 0 -251 77t-101 255z" />
    <glyph glyph-name="one.oldstyle" horiz-adv-x="722" 
d="M528 1294v-1294h-116v1161l-344 -121v80l344 174h116z" />
    <glyph glyph-name="two.oldstyle" horiz-adv-x="1222" 
d="M94 1190v82q317 47 598 35q208 1 312 -101t104 -282q0 -98 -69 -211q-159 -260 -565 -522q-79 -50 -126 -74h750v-117h-994v109q206 109 376 229q171 119 270 207q98 88 170 192t71 191q0 268 -307 262h-590z" />
    <glyph glyph-name="three.oldstyle" horiz-adv-x="1265" 
d="M723 -94q252 0 252 225v121q0 119 -73 175t-171 60l-477 15v88l477 16q172 6 230 126q18 40 18 93v142q0 111 -70 166t-174 55h-620v72q109 32 257 40t373 5q167 -3 259 -97t92 -241v-142q0 -80 -29 -142q-49 -104 -145 -136q174 -86 174 -295v-121q0 -344 -365 -344
q-288 0 -413 11q-124 11 -191 34l2 74h594z" />
    <glyph glyph-name="four.oldstyle" horiz-adv-x="1214" 
d="M868 317v445l58 153h59v-598h184v-90l-184 -32v-396h-117v396h-768l-55 67l649 1032h137l-610 -977h647z" />
    <glyph glyph-name="five.oldstyle" horiz-adv-x="1304" 
d="M174 -90h623q104 0 161 64t58 165v215q0 116 -53 171t-166 57h-316q-76 0 -136 -52t-60 -137h-107l45 901h864v-116h-755l-29 -568q23 31 73 58q50 28 103 30q117 6 204 3q88 -3 114 -3q174 0 255 -91t81 -249v-223q0 -151 -82 -245q-95 -103 -254 -103q-219 0 -341 6
t-282 33v84z" />
    <glyph glyph-name="six.oldstyle" horiz-adv-x="1284" 
d="M287 743q0 -276 43 -415q68 -216 225 -213h285q100 0 157 40t58 154v248q1 106 -57 146t-158 40h-553zM170 790q0 381 111 562q100 161 241 159q354 0 598 -32v-84h-579q-59 0 -107 -42q-82 -73 -114 -228q-33 -156 -33 -300q305 35 529 35t293 -91q60 -78 60 -212v-254
q0 -305 -329 -305h-285q-72 0 -127 20q-258 93 -258 772z" />
    <glyph glyph-name="seven.oldstyle" horiz-adv-x="1110" 
d="M68 1178v116h925l49 -82l-524 -1417h-139l514 1383h-825z" />
    <glyph glyph-name="eight.oldstyle" horiz-adv-x="1312" 
d="M289 1012q-1 -119 71 -154t150 -35h305q113 -1 162 57t49 132v139q0 129 -52 185t-163 57h-279q-129 1 -186 -51t-57 -191v-139zM1026 524q0 180 -211 185h-305q-86 0 -154 -44t-67 -141v-215q0 -193 243 -192h277q86 0 152 48t65 144v215zM172 315v201q0 184 184 223
q-100 29 -142 108t-42 175v133q0 195 94 275t266 79h279q222 0 294 -150q38 -79 38 -204v-133q1 -69 -23 -121q-46 -102 -143 -119q84 -18 125 -98t41 -168v-201q0 -210 -161 -280q-80 -35 -173 -35h-277q-204 0 -289 98q-71 79 -71 217z" />
    <glyph glyph-name="nine.oldstyle" horiz-adv-x="1284" 
d="M252 735q0 -106 57 -146t158 -40h553q0 276 -43 414q-67 215 -225 215h-285q-99 0 -157 -40t-58 -155v-248zM137 735v254q0 305 330 305h285q72 0 127 -20q254 -92 258 -768q0 -543 -223 -686q-60 -39 -130 -39q-408 0 -598 33v84h578q76 0 129 59t88 188t39 322
q-307 -35 -530 -35t-288 85t-65 218z" />
    <glyph glyph-name="questiondown.alt" horiz-adv-x="1099" 
d="M588 1341v119q0 41 39 41h84q16 0 28 -11t13 -30v-119q0 -43 -41 -43h-84q-39 0 -39 43zM92 367v206q0 389 514 322v207h119v-303q-175 2 -277 0q-102 -3 -172 -57t-69 -169v-206q0 -168 105 -225q72 -36 202 -38l543 2v-83q-332 -41 -557 -35q-408 -2 -408 379z" />
    <glyph glyph-name="at.alt" horiz-adv-x="1746" 
d="M584 408q0 -52 47 -94t112 -42q133 -2 381 119v305l-383 -28q-69 -4 -113 -45t-44 -123v-92zM150 887q0 37 2 65t21 84q19 55 52 92t104 66t165 29h430q121 0 217 -63t96 -224v-762h-86l-25 131l-23 -15q-214 -134 -374 -134q-113 -2 -187 66t-75 173v109q0 128 70 200
t194 72h393q2 156 0 156q0 96 -52 135t-154 39h-424q-106 0 -166 -47t-62 -172v-713q0 -193 150 -234q37 -11 78 -12h694q133 0 189 60t57 186v1049q0 195 -143 251q-46 17 -103 17h-817v74q223 47 590 43h227q168 -4 265 -100t97 -285v-1049q0 -365 -362 -364h-694
q-158 0 -251 95t-93 269v713z" />
    <glyph glyph-name="g.salt" horiz-adv-x="1140" 
d="M231 549q0 -271 66 -362t195 -91q128 0 219 18t178 40v829h-397q-261 0 -261 -434zM115 549q0 264 94 407q94 144 272 144t341 -20t184 -21v-1272q0 -90 -31 -162q-54 -125 -184 -170q-55 -18 -111 -12l-508 49v76l508 -10q88 -2 148 56t61 173v272q-92 -37 -206 -59
q-336 -63 -460 86q-108 129 -108 463z" />
    <glyph glyph-name="ampersand.salt" horiz-adv-x="1931" 
d="M506 446h477q98 0 128 20t30 98q0 79 -30 101t-128 21h-264q-139 0 -176 -63q-37 -62 -37 -177zM217 586q0 -83 53 -111q53 -27 119 -29q0 182 80 270t250 87h264q140 0 184 -32q61 -40 75 -95q15 -55 15 -111q0 -141 -60 -188t-214 -47h-477q0 -83 22 -123t63 -61
q42 -22 91 -24q49 -3 92 -5h316q252 0 330 137q30 53 30 129v590h-918q-221 0 -268 -49q-47 -54 -47 -156v-182zM100 586v182q0 233 162 290q90 30 270 32h918l31 303h86v-306h317v-79l-317 -35v-590q1 -252 -219 -339q-111 -44 -258 -44h-316q-94 0 -158 11t-118 45
q-109 67 -109 276q-103 0 -189 53q-44 27 -72 79t-28 122z" />
    <glyph glyph-name="a.superior" horiz-adv-x="755" 
d="M168 965q0 -103 117 -103q53 0 126 22t117 44l45 22v213l-290 -22q-115 -8 -115 -107v-69zM72 948v94q0 117 95 162q46 23 109 23q297 0 297 2v63q-1 131 -151 131t-326 -14v64q137 35 338 40q102 2 169 -51t67 -159v-529h-64l-33 107l-19 -12q-178 -103 -271 -103
t-152 48t-59 134z" />
    <glyph glyph-name="b.superior" horiz-adv-x="802" 
d="M449 862q178 0 178 273q0 164 -41 223t-141 59t-172 -18t-91 -21v-438q12 -4 56 -24q114 -54 211 -54zM86 774v1073h96v-395q147 61 277 61q187 0 237 -165q27 -89 27 -213q0 -369 -266 -369q-129 0 -275 106l-32 -98h-64z" />
    <glyph glyph-name="c.superior" horiz-adv-x="737" 
d="M340 764q-124 0 -196 71t-72 303t75 305q39 38 83 52t129 14t292 -41v-71q-182 16 -266 16t-112 -7q-27 -7 -55 -34q-50 -49 -50 -222t41 -231q41 -59 147 -59t306 21v-72q-141 -43 -322 -45z" />
    <glyph glyph-name="d.superior" horiz-adv-x="798" 
d="M168 1137q0 -274 178 -275q75 0 151 27t111 51v438q-10 4 -44 12t-43 10q-9 3 -36 8t-43 6t-42 3t-56 2q-94 0 -135 -59t-41 -223zM72 1137q0 217 67 298t195 81q129 0 276 -62v395h95v-1075h-64l-33 98q-143 -106 -272 -106q-264 0 -264 371z" />
    <glyph glyph-name="e.superior" horiz-adv-x="798" 
d="M168 1182h330q125 0 125 71q1 63 -19 97t-66 46q-46 13 -123 13t-117 -8q-93 -19 -117 -103q-13 -44 -13 -116zM72 1129q0 205 68 291t263 85q194 0 255 -63t63 -199q0 -160 -217 -160h-336q0 -174 79 -206q38 -16 107 -17q225 0 351 21v-70q-170 -47 -363 -47
q-145 0 -208 80q-62 80 -62 285z" />
    <glyph glyph-name="f.superior" horiz-adv-x="669" 
d="M59 1391v73l154 21v149q0 215 197 215q84 0 200 -26v-68l-172 4q-82 0 -105 -34q-24 -34 -24 -101v-137h236v-96h-240v-617h-96v617h-150z" />
    <glyph glyph-name="g.superior" horiz-adv-x="849" 
d="M342 1063h119q55 0 93 26q67 46 68 146t-66 146q-34 24 -83 24h-127q-166 0 -168 -170q0 -72 40 -122t124 -50zM170 614q0 -80 39 -110t108 -29h199q70 0 100 32t31 97v10q0 55 -37 78t-102 31l-272 33l-66 12v-154zM739 604q0 -226 -207 -223h-233q-102 0 -163 54
q-60 55 -60 161v86l41 106q-43 35 -43 113q0 41 28 77q29 36 86 42q-49 23 -78 84q-30 61 -30 131q0 129 66 197q67 68 182 67h452v-57l-129 -35q23 -15 45 -65t23 -101q0 -103 -49 -179q-62 -97 -189 -96q-125 1 -187 1t-74 -4q-48 -15 -48 -50t15 -48t51 -17l301 -35
q94 -12 147 -61t53 -131v-17z" />
    <glyph glyph-name="h.superior" horiz-adv-x="815" 
d="M86 774v1071h96v-442q6 2 73 44t126 54t119 12q60 1 117 -33q110 -66 110 -200v-506h-96v492q0 72 -45 112q-44 40 -106 39q-110 0 -195 -37q-25 -10 -103 -45v-561h-96z" />
    <glyph glyph-name="i.superior" horiz-adv-x="278" 
d="M88 774v729h96v-729h-96zM78 1628v82q0 33 33 33h55q33 0 33 -33v-82q0 -31 -33 -31h-55q-33 0 -33 31z" />
    <glyph glyph-name="j.superior" horiz-adv-x="284" 
d="M88 401v1100h100v-733q2 -201 -34 -367h-66zM80 1634v80q0 35 33 35h57q31 0 31 -35v-80q0 -33 -31 -32h-57q-33 -1 -33 32z" />
    <glyph glyph-name="k.superior" horiz-adv-x="763" 
d="M86 774v1067h96v-616h78l301 272h137l-350 -317l352 -406h-127l-303 354h-88v-354h-96z" />
    <glyph glyph-name="l.superior" horiz-adv-x="487" 
d="M84 1032v811h96v-801q0 -96 25 -131t86 -47q127 -25 133 -24v-66h-137q-109 0 -156 60t-47 198z" />
    <glyph glyph-name="m.superior" horiz-adv-x="1351" 
d="M86 774v725h72l24 -98q66 39 92 54t86 35q59 20 125 19t124 -31t83 -83q147 115 311 115t230 -115q31 -53 31 -119v-502h-97v488q1 44 -21 80q-43 70 -134 71q-145 0 -289 -78q6 -16 6 -69v-492h-96v488q0 70 -46 110q-45 40 -107 41q-106 0 -194 -37q-26 -10 -104 -45
v-557h-96z" />
    <glyph glyph-name="n.superior" horiz-adv-x="815" 
d="M182 774h-96v725h66l30 -94q138 85 197 96q59 12 121 12q62 1 117 -33q110 -66 110 -200v-506h-96v492q0 49 -22 85q-42 68 -150 68q-109 0 -277 -84v-561z" />
    <glyph glyph-name="o.superior" horiz-adv-x="808" 
d="M402 864q128 0 178 54t51 216q0 162 -50 218q-51 56 -183 57q-132 -1 -181 -61t-49 -220t53 -212t181 -52zM72 1132q0 188 70 281q71 92 262 92t257 -95t66 -275q0 -181 -67 -274t-256 -93t-261 88q-71 88 -71 276z" />
    <glyph glyph-name="p.superior" horiz-adv-x="798" 
d="M438 854q104 0 144 59q41 59 41 226q0 276 -174 276q-54 0 -85 -8t-47 -12q-15 -5 -39 -15t-57 -23t-43 -22v-442q156 -39 260 -39zM86 397v1104h64l28 -96q43 33 125 70t157 37q259 -2 259 -373q0 -212 -68 -298q-68 -85 -188 -83q-55 0 -136 16t-149 45v-422h-92z" />
    <glyph glyph-name="q.superior" horiz-adv-x="804" 
d="M409 848q83 0 205 39v530h-243q-203 1 -203 -278q0 -145 33 -200q33 -61 79 -76t129 -15zM72 1139q0 241 125 329q63 45 147 45t154 -6t132 -14t81 -10v-1086h-97v416q-147 -61 -258 -61q-284 0 -284 387z" />
    <glyph glyph-name="r.superior" horiz-adv-x="679" 
d="M86 774v725h68l28 -104q10 4 28 15t26 16q10 6 27 16q106 66 207 65q101 0 128 -12v-92q-37 8 -133 8t-175 -37q-28 -12 -108 -45v-555h-96z" />
    <glyph glyph-name="s.superior" horiz-adv-x="768" 
d="M72 1262v71q0 91 45 139t167 48t363 -27v-72l-362 2q-74 -1 -96 -25t-21 -81v-49q0 -59 23 -73q24 -13 88 -13h231q133 0 169 -104q11 -32 11 -72v-76q0 -178 -182 -178q-119 0 -402 32v70l379 -4q22 -2 27 -2q82 0 82 100v51q0 61 -42 76q-22 8 -60 8h-230
q-70 1 -108 15q-82 30 -82 164z" />
    <glyph glyph-name="t.superior" horiz-adv-x="634" 
d="M61 1407v70l152 22l29 207h67v-203h230v-96h-230v-369q0 -125 43 -151q23 -15 104 -29t83 -14v-68h-121q-111 0 -158 58t-47 196v377h-152z" />
    <glyph glyph-name="u.superior" horiz-adv-x="806" 
d="M82 1006v497h96v-491q0 -70 46 -111t106 -41q102 0 184 36q23 9 100 44v563h99v-725h-68l-31 96q-6 -6 -34 -22t-37 -22q-101 -66 -215 -66q-115 0 -181 72q-65 72 -65 170z" />
    <glyph glyph-name="v.superior" horiz-adv-x="851" 
d="M57 1499h109l264 -584l256 584h107l-322 -725h-84z" />
    <glyph glyph-name="w.superior" horiz-adv-x="1261" 
d="M57 1499h109l264 -584l256 584h107l-109 -242l156 -342l254 584h108l-321 -725h-84l-166 361l-160 -361h-84z" />
    <glyph glyph-name="x.superior" horiz-adv-x="804" 
d="M59 774l287 367l-287 358h119l225 -280l215 280h121l-278 -358l282 -367h-118l-222 291l-225 -291h-119z" />
    <glyph glyph-name="y.superior" horiz-adv-x="878" 
d="M57 1501h107l223 -557q33 -76 86 -76l238 633h106l-354 -960l-107 -140h-65l145 369q-47 6 -83 45t-56 90z" />
    <glyph glyph-name="z.superior" horiz-adv-x="768" 
d="M72 1405v94h614v-82l-465 -547h463v-94h-590v94l459 535h-481z" />
    <glyph glyph-name="zero.tnum" horiz-adv-x="1275" 
d="M250 332q0 -109 66 -162t169 -53h316q225 0 225 215v835q0 215 -225 215h-316q-115 0 -175 -58t-60 -157v-835zM133 332v835q0 160 99 246t253 86h316q179 0 259 -93t83 -239v-835q0 -332 -342 -332h-316q-152 0 -252 77t-100 255z" />
    <glyph glyph-name="one.tnum" horiz-adv-x="1275" 
d="M805 1499v-1380h346v-119h-827v119h362v1247l-362 -125v80l362 178h119z" />
    <glyph glyph-name="two.tnum" horiz-adv-x="1275" 
d="M129 1401v84q266 35 602 35q306 0 391 -268q25 -76 25 -154q0 -200 -213 -463q-84 -105 -205 -217q-223 -205 -367 -301h785v-117h-1004v109q530 379 748 668q137 185 137 324t-75 219t-226 81h-598z" />
    <glyph glyph-name="three.tnum" horiz-adv-x="1275" 
d="M152 1386v72q109 33 257 41t373 4q168 -2 258 -96t90 -242v-141q0 -80 -28 -142q-47 -102 -144 -137q172 -86 172 -294v-121q0 -344 -364 -344q-290 0 -412 11q-123 11 -190 34v73h594q185 0 231 109q20 47 21 117v121q0 121 -72 176t-172 59l-475 14v88l475 19
q116 2 182 58t66 159v141q0 162 -152 208q-43 13 -92 13h-618z" />
    <glyph glyph-name="four.tnum" horiz-adv-x="1275" 
d="M889 522v445l55 153h62v-598h184v-90l-184 -31v-397h-117v397h-770l-56 66l650 1032h139l-610 -977h647z" />
    <glyph glyph-name="five.tnum" horiz-adv-x="1275" 
d="M174 115h623q104 1 161 65t58 164v215q0 114 -52 171q-52 56 -167 56h-316q-76 0 -136 -52t-60 -136h-107l45 901h864v-117h-755l-29 -565q23 29 71 55t137 31q89 6 180 3t106 -3q174 0 255 -91t81 -249v-223q0 -152 -82 -244q-98 -104 -254 -104q-219 0 -341 6t-282 33
v84z" />
    <glyph glyph-name="six.tnum" horiz-adv-x="1275" 
d="M256 743q0 -276 43 -414q68 -217 225 -214h285q100 0 158 40q57 40 57 154v248q0 106 -57 146t-158 40h-553zM139 790q0 381 111 562q100 161 242 159q346 0 598 -32v-84h-578q-76 1 -129 -59q-118 -133 -127 -511q307 35 530 35t292 -91q59 -76 61 -212v-254
q0 -305 -330 -305h-285q-72 0 -126 20t-104 75q-155 167 -155 697z" />
    <glyph glyph-name="seven.tnum" horiz-adv-x="1275" 
d="M154 1382v117h925l47 -82l-524 -1417h-137l514 1382h-825z" />
    <glyph glyph-name="eight.tnum" horiz-adv-x="1275" 
d="M272 1012q0 -189 222 -189h305q113 -1 162 57t49 132v139q0 129 -52 185t-163 57h-279q-129 1 -186 -51t-58 -191v-139zM272 309q0 -193 244 -192h277q85 0 151 48t66 144v215q0 179 -211 185h-305q-86 0 -154 -44t-68 -141v-215zM516 0q-360 0 -360 315v201
q0 184 184 223q-100 29 -142 108t-42 175v133q0 195 94 275t266 79h279q167 0 249 -84t82 -270v-133q0 -67 -23 -120q-44 -103 -142 -120q83 -18 125 -98t40 -168v-201q0 -212 -159 -280q-82 -35 -174 -35h-277z" />
    <glyph glyph-name="nine.tnum" horiz-adv-x="1275" 
d="M254 948q0 -106 57 -146t158 -40h553q0 279 -43 415q-68 214 -225 214h-285q-99 0 -157 -40t-58 -155v-248zM139 948v254q0 305 330 305h285q72 0 127 -20q122 -44 189 -221t69 -547q0 -543 -223 -686q-60 -39 -130 -39q-401 0 -598 33v84h578q76 0 129 60t88 189t39 322
q-307 -37 -530 -37t-288 86q-65 87 -65 217z" />
    <glyph glyph-name="zero.tosf" horiz-adv-x="1275" 
d="M250 332q0 -109 66 -162t169 -53h316q225 0 225 215v629q0 215 -225 215h-316q-115 0 -175 -58t-60 -157v-629zM133 332v629q0 159 99 245t253 86h316q176 0 259 -90t83 -241v-629q0 -332 -342 -332h-316q-152 0 -252 77t-100 255z" />
    <glyph glyph-name="one.tosf" horiz-adv-x="1275" 
d="M791 1294v-1175h333v-119h-798v119h348v1042l-344 -121v80l344 174h117z" />
    <glyph glyph-name="two.tosf" horiz-adv-x="1275" 
d="M129 1190v82q317 47 598 35q209 1 312 -101t104 -282q0 -98 -68 -211q-151 -250 -566 -522q-79 -50 -126 -74h750v-117h-994v109q130 66 286 168q157 102 248 176q91 73 174 153q179 171 179 322q0 268 -307 262h-590z" />
    <glyph glyph-name="three.tosf" horiz-adv-x="1275" 
d="M152 1186v71q109 35 257 42t373 4q168 -3 258 -97t90 -241v-142q0 -117 -52 -187t-120 -89q172 -86 172 -297v-121q0 -344 -364 -344q-292 0 -413 12q-122 12 -189 35v72h594q184 0 231 108q20 47 21 117v121q0 121 -72 176t-172 59l-475 15v88l475 18q116 4 182 60
t66 157v142q0 114 -70 167q-70 54 -174 54h-618z" />
    <glyph glyph-name="four.tosf" horiz-adv-x="1275" 
d="M889 317v445l55 153h62v-598h184v-90l-184 -32v-396h-117v396h-770l-56 67l650 1032h139l-610 -977h647z" />
    <glyph glyph-name="five.tosf" horiz-adv-x="1275" 
d="M174 -90h623q104 0 161 64t58 165v215q0 116 -53 171t-166 57h-316q-76 0 -136 -52t-60 -137h-107l45 901h864v-116h-755l-29 -568q23 31 73 58q50 28 103 30q117 6 204 3q88 -3 114 -3q174 0 255 -91t81 -249v-223q0 -151 -82 -245q-95 -103 -254 -103q-219 0 -341 6
t-282 33v84z" />
    <glyph glyph-name="six.tosf" horiz-adv-x="1275" 
d="M256 743q0 -276 43 -414q68 -217 225 -214h285q100 0 158 40q57 40 57 154v248q0 106 -57 146t-158 40h-553zM139 790q0 381 111 562q100 161 242 159q346 0 598 -32v-84h-578q-76 1 -129 -59q-118 -133 -127 -511q307 35 530 35t292 -91q59 -76 61 -212v-254
q0 -305 -330 -305h-285q-72 0 -126 20t-104 75q-155 167 -155 697z" />
    <glyph glyph-name="seven.tosf" horiz-adv-x="1275" 
d="M154 1178v116h925l47 -82l-524 -1417h-137l514 1383h-825z" />
    <glyph glyph-name="eight.tosf" horiz-adv-x="1275" 
d="M272 1012q0 -189 222 -189h305q113 -1 162 57t49 132v139q0 129 -52 185t-163 57h-279q-129 1 -186 -51t-58 -191v-139zM272 309q0 -193 244 -192h277q85 0 151 48t66 144v215q0 179 -211 185h-305q-86 0 -154 -44t-68 -141v-215zM516 0q-360 0 -360 315v201
q0 184 184 223q-100 29 -142 108t-42 175v133q0 195 94 275t266 79h279q167 0 249 -84t82 -270v-133q0 -67 -23 -120q-44 -103 -142 -120q83 -18 125 -98t40 -168v-201q0 -212 -159 -280q-82 -35 -174 -35h-277z" />
    <glyph glyph-name="nine.tosf" horiz-adv-x="1275" 
d="M254 735q0 -106 57 -146t158 -40h553q0 284 -58 455q-36 105 -117 150q-42 24 -93 24h-285q-99 0 -157 -40t-58 -155v-248zM139 735v254q0 305 330 305h285q72 0 127 -20q254 -92 258 -768q0 -543 -223 -686q-60 -39 -130 -39q-408 0 -598 33v84h578q76 0 129 59t88 188
t39 322q-307 -35 -530 -35t-288 85t-65 218z" />
    <glyph glyph-name="gbreve.salt" horiz-adv-x="1140" 
d="M231 549q0 -271 66 -362t195 -91q128 0 219 18t178 40v829h-397q-261 0 -261 -434zM115 549q0 264 94 407q94 144 272 144t341 -20t184 -21v-1272q0 -90 -31 -162q-54 -125 -184 -170q-55 -18 -111 -12l-508 49v76l508 -10q88 -2 148 56t61 173v272q-92 -37 -206 -59
q-336 -63 -460 86q-108 129 -108 463zM362 1448h74q0 -68 48 -114t104 -46q107 0 150 76q22 37 22 84h74q0 -110 -73 -171t-162 -62t-163 62t-74 171z" />
    <glyph glyph-name="gdotaccent.salt" horiz-adv-x="1140" 
d="M231 549q0 -271 66 -362t195 -91q128 0 219 18t178 40v829h-397q-261 0 -261 -434zM115 549q0 264 94 407q94 144 272 144t341 -20t184 -21v-1272q0 -90 -31 -162q-54 -125 -184 -170q-55 -18 -111 -12l-508 49v76l508 -10q88 -2 148 56t61 173v272q-92 -37 -206 -59
q-336 -63 -460 86q-108 129 -108 463zM524 1260v116q0 41 41 41h76q39 0 39 -41v-116q0 -39 -39 -39h-76q-17 1 -29 11t-12 28z" />
    <glyph glyph-name="gcircumflex.salt" horiz-adv-x="1140" 
d="M231 549q0 -271 66 -362t195 -91q128 0 219 18t178 40v829h-397q-261 0 -261 -434zM115 549q0 264 94 407q94 144 272 144t341 -20t184 -21v-1272q0 -90 -31 -162q-54 -125 -184 -170q-55 -18 -111 -12l-508 49v76l508 -10q88 -2 148 56t61 173v272q-92 -37 -206 -59
q-336 -63 -460 86q-108 129 -108 463zM317 1217l250 266h109l225 -266h-108l-175 176l-192 -176h-109z" />
    <glyph glyph-name="c_t" horiz-adv-x="1712" 
d="M92 537q0 271 63 392t178 148q50 12 118 13h770l28 301h88v-304h332v-116h-332v-586q0 -196 60 -238q33 -23 134 -43q102 -20 107 -20v-86h-151q-141 0 -204 89q-62 89 -62 298v584h-770q-95 0 -136 -32q-62 -47 -84 -149t-22 -266q0 -315 107 -387q50 -33 134 -33
q175 0 388 23l73 6v-86q-199 -55 -460 -59q-68 0 -117 11t-97 46q-145 106 -145 494z" />
    <glyph glyph-name="t_t" horiz-adv-x="1488" 
d="M45 973v86l193 31l30 303h86v-303h643l29 303h88v-303h330v-117h-330v-584q0 -130 26 -195q20 -57 117 -75q150 -33 156 -33v-84h-151q-141 0 -203 89q-61 89 -62 298v584h-643v-586q0 -195 60 -237q29 -20 132 -42q104 -22 109 -22v-86h-151q-141 0 -204 89
q-62 89 -62 298v586h-193z" />
    <glyph glyph-name="f_t" horiz-adv-x="1548" 
d="M45 971v86l195 30v203q0 167 53 241q23 31 69 55t109 24q160 0 293 -41v-74h-264q-97 4 -120 -54q-24 -58 -24 -151v-200h699l30 303h86v-303h332v-117h-332l3 -586q0 -198 58 -237q29 -19 85 -33q150 -31 156 -31v-86h-152q-141 0 -203 89q-61 89 -61 298l-2 586h-701
v-973h-116v971h-193z" />
    <glyph glyph-name="t_y" horiz-adv-x="1904" 
d="M45 973v86l193 31l30 303h86v-303h326q171 0 235 -54q37 -32 57 -68t46 -106l229 -622q41 -117 146 -117l14 2l324 965h131l-478 -1432l-135 -209h-78l199 553q-118 9 -187 106q-36 48 -61 119l-219 594q-31 88 -76 120t-147 32h-326v-586q0 -130 27 -194q22 -58 119 -76
q150 -31 155 -31v-86h-151q-141 0 -204 89q-62 89 -62 298v586h-193z" />
    <glyph glyph-name="f_y" horiz-adv-x="1953" 
d="M45 971v86l195 30v203q0 167 53 241q57 79 203 79q90 0 268 -54v-75l-264 14q-79 4 -106 -28q-38 -45 -38 -177v-203h359q88 0 144 -10q100 -18 153 -108q20 -37 47 -107l235 -620q55 -117 160 -117l322 967h131l-477 -1432l-136 -209h-75l198 553q-53 0 -103 28
q-96 53 -147 197l-223 592q-23 59 -49 91q-48 57 -180 59h-361v-971h-116v971h-193z" />
    <glyph glyph-name="gcommaaccent.salt" horiz-adv-x="1140" 
d="M231 549q0 -271 66 -362t195 -91q128 0 219 18t178 40v829h-397q-261 0 -261 -434zM115 549q0 264 94 407q94 144 272 144t341 -20t184 -21v-1272q0 -90 -31 -162q-54 -125 -184 -170q-55 -18 -111 -12l-508 49v76l508 -10q88 -2 148 56t61 173v272q-92 -37 -206 -59
q-336 -63 -460 86q-108 129 -108 463zM526 1255v179q0 130 138 112v-41q-49 0 -50 -47v-61h19q37 0 37 -37v-105q0 -41 -37 -41h-70q-37 0 -37 41z" />
    <glyph glyph-name="exclam.smcp" horiz-adv-x="542" 
d="M201 1167h135l-12 -825h-111zM188 39v121q0 43 41 43h82q39 0 39 -43v-121q0 -39 -39 -39h-82q-17 0 -29 12t-12 27z" />
    <glyph glyph-name="quotedbl.smcp" horiz-adv-x="694" 
d="M416 1274h116v-137l-18 -275h-80l-18 275v137zM164 1274h117v-137l-19 -275h-80l-18 275v137z" />
    <glyph glyph-name="numbersign.smcp" horiz-adv-x="1161" 
d="M401 446h283l43 271h-278zM45 369l12 77h265l47 271h-269l11 76h270l63 374h80l-63 -374h280l62 374h80l-64 -374h299l-10 -76h-299l-47 -271h303l-12 -77h-303l-62 -371h-80l62 371h-279l-63 -371h-80l63 371h-266z" />
    <glyph glyph-name="dollar.smcp" horiz-adv-x="1052" 
d="M813 358q0 76 -55 123t-144 47h-168q-172 0 -252 75t-79 202v63q0 181 116 257q80 53 252 53v133h99v-137q145 -8 309 -29v-86h-424q-123 0 -179 -42t-57 -149v-63q1 -84 59 -124t156 -40h168q152 0 235 -86t83 -197v-77q0 -102 -54 -172q-102 -132 -296 -121v-129h-99
v135l-331 29v83l448 3q140 0 192 87q22 36 21 85v77z" />
    <glyph glyph-name="percent.smcp" horiz-adv-x="1636" 
d="M1051 256q-1 -92 35 -125t126 -33h95q98 0 132 32t34 126v127q0 90 -35 124t-127 34h-94q-99 0 -133 -33t-33 -125v-127zM952 256v127q0 135 58 195t207 61h94q145 0 202 -60t58 -196v-127q1 -136 -57 -196t-207 -60h-95q-144 0 -202 60t-58 196zM410 0l702 1167h111
l-703 -1167h-110zM164 784q0 -92 36 -125t126 -32h94q68 0 102 14t49 47q14 33 15 96v129q0 90 -35 124t-127 34h-94q-68 0 -103 -14t-49 -47t-14 -97v-129zM66 784v129q0 135 57 195t207 61h94q144 0 202 -60t58 -196v-129q0 -135 -57 -195t-207 -61h-94q-187 0 -237 112
q-23 54 -23 144z" />
    <glyph glyph-name="ampersand.smcp" horiz-adv-x="1126" 
d="M245 194q34 -44 84 -70t111 -20t111 56l135 129l-254 323l-139 -114q-63 -52 -85 -110t-10 -104t47 -90zM834 1061h-365q-80 0 -116 -28q-68 -53 24 -169l393 -495l191 178l36 -41l-100 -174l-55 -56l213 -276h-137l-160 201l-137 -131q-63 -60 -149 -78t-176 16
q-88 34 -149 119q-88 121 -70 241q17 120 134 216l145 118l-90 115q-68 90 -63 165q4 75 51 124t113 59q172 27 467 -24v-80z" />
    <glyph glyph-name="quotesingle.smcp" horiz-adv-x="442" 
d="M164 1274h117v-137l-19 -275h-80l-18 275v137z" />
    <glyph glyph-name="asterisk.smcp" horiz-adv-x="917" 
d="M537 846l239 160l31 -56l-193 -194zM449 678l63 100l229 -182l-32 -51zM381 1161l61 25l150 -246l-109 -47zM262 532l55 277l117 -27l-115 -268zM115 866v64l286 43l7 -117z" />
    <glyph glyph-name="zero.smcp" horiz-adv-x="1206" 
d="M276 332q0 -113 69 -164t167 -51h193q119 0 172 58t53 157v504q0 215 -225 215h-193q-119 1 -177 -57t-59 -158v-504zM160 332v504q0 112 48 188q91 146 304 143h193q91 1 157 -25t100 -62q81 -85 85 -244v-504q0 -332 -342 -332h-193q-150 0 -251 77t-101 255z" />
    <glyph glyph-name="one.smcp" horiz-adv-x="696" 
d="M514 1186v-1186h-117v1053l-305 -123v82l305 174h117z" />
    <glyph glyph-name="two.smcp" horiz-adv-x="1060" 
d="M551 1169q395 0 395 -383q0 -336 -612 -669h602v-117h-832v109q41 29 127 81t157 98q189 118 299 228q58 57 97 130t39 142q0 131 -67 200q-68 69 -224 65l-440 -2v75q55 8 170 26t289 17z" />
    <glyph glyph-name="three.smcp" horiz-adv-x="1062" 
d="M68 1057v78q131 45 553 39q86 -2 148 -44q124 -83 124 -249v-72q0 -93 -39 -153t-88 -74q53 -27 90 -88t37 -152v-57q0 -141 -70 -218t-213 -77h-39q-387 0 -491 37v79h493q94 0 147 38q52 38 52 141v57q0 96 -54 137t-130 43l-410 10v99l410 8q188 2 188 170v72
q0 86 -49 131t-143 45h-516z" />
    <glyph glyph-name="four.smcp" horiz-adv-x="1101" 
d="M756 426v354l57 154h59v-508h185v-90l-185 -33v-299h-116v299h-652l-59 66l457 798h137l-418 -741h535z" />
    <glyph glyph-name="five.smcp" horiz-adv-x="1138" 
d="M174 123h506q113 0 160 49t47 141v111q0 40 -4 66q-5 26 -23 55q-36 57 -172 57h-207q-111 0 -168 -78q-29 -39 -28 -92h-109l35 735h739v-116h-624l-21 -420q27 37 74 63t102 25h207q172 0 244 -76t72 -215v-119q0 -161 -90 -235t-234 -76q-344 -4 -506 41v84z" />
    <glyph glyph-name="six.smcp" horiz-adv-x="1146" 
d="M266 567q0 -453 211 -452h256q74 1 117 33t43 118v180q0 70 -38 96t-122 25h-467zM150 617q0 359 143 492q74 69 172 71q254 4 508 -27v-90h-508q-152 0 -192 -290q-7 -58 -7 -111q184 23 467 22q154 0 215 -62t62 -176v-188q0 -132 -77 -196t-200 -64h-256
q-158 0 -229 116q-29 46 -52 111q-46 126 -46 392z" />
    <glyph glyph-name="seven.smcp" horiz-adv-x="980" 
d="M68 1051v116h798l49 -82l-409 -1085h-129l395 1051h-704z" />
    <glyph glyph-name="eight.smcp" horiz-adv-x="1210" 
d="M764 653q158 0 162 154v78q0 100 -35 137t-121 37h-307q-51 0 -79 -4q-28 -3 -52 -21q-42 -30 -43 -149v-78q0 -154 164 -154h311zM289 266q0 -78 39 -112t133 -35h307q72 0 114 37t42 110v109q0 160 -160 160h-311q-164 0 -164 -156v-113zM172 270v119q0 103 48 137
t104 49q-49 13 -85 53q-67 74 -67 183v78q0 157 68 223t211 66h331q258 0 258 -289v-78q0 -121 -73 -176q-29 -23 -66 -29q63 -10 101 -78t38 -141v-117q0 -143 -75 -207q-76 -63 -185 -63h-331q-77 0 -133 22t-83 48q-61 60 -61 200z" />
    <glyph glyph-name="nine.smcp" horiz-adv-x="1146" 
d="M254 727q0 -69 38 -95t122 -26h469q0 453 -211 453h-258q-72 0 -116 -32t-44 -120v-180zM137 727v188q0 91 39 151q71 110 238 110h258q185 0 262 -178q65 -150 65 -439q0 -359 -145 -494q-76 -71 -170 -71q-315 -4 -510 26v91h508q61 0 104 45t69 144t28 212
q-186 -23 -469 -23q-152 1 -214 63t-63 175z" />
    <glyph glyph-name="question.smcp" horiz-adv-x="952" 
d="M307 39v121q0 43 41 43h80q41 0 41 -43v-121q0 -39 -41 -39h-80q-18 0 -30 11q-11 12 -11 28zM45 1055v88q270 35 442 28q189 0 281 -84t92 -233v-96q0 -156 -120 -228t-291 -47v-143h-121v248q127 -4 179 -2q236 9 236 172v96q0 106 -63 154t-201 47h-434z" />
    <glyph glyph-name="at.smcp" horiz-adv-x="1742" 
d="M582 366q0 -44 2 -47q0 -53 46 -94t113 -41q131 -2 379 117v307l-381 -28q-71 -6 -115 -48t-42 -120q-2 -2 -2 -46zM150 86v713q0 331 344 336h430q118 0 216 -62q97 -62 97 -225v-762h-88l-23 131l-24 -15q-152 -91 -236 -112q-85 -22 -137 -22q-115 -2 -189 66t-73 173
v109q0 124 69 198t195 74h391q2 156 0 156q0 96 -51 135t-153 39h-424q-106 0 -166 -47t-62 -172v-713q0 -196 148 -236q37 -10 80 -10h694q133 0 189 60t57 186v1049q0 125 -64 195q-64 71 -182 73h-817v74q221 45 590 43h227q227 -4 316 -173q46 -87 46 -212v-1049
q0 -365 -362 -365h-694q-160 1 -252 95t-92 270z" />
    <glyph glyph-name="a.smcp" horiz-adv-x="1200" 
d="M395 449h432l-206 555zM80 0l483 1167h117l446 -1167h-127l-131 332h-520l-141 -332h-127z" />
    <glyph glyph-name="b.smcp" horiz-adv-x="1120" 
d="M301 662h401q100 0 150 47q49 47 49 151q0 193 -199 193h-401v-391zM301 119h401q149 0 187 96q18 45 18 128t-53 142t-152 60q-354 -2 -401 0v-426zM184 0v1169h518q183 0 254 -104q62 -88 62 -203t-42 -174t-112 -92q56 -18 108 -87t52 -181q0 -328 -322 -328h-518z
" />
    <glyph glyph-name="c.smcp" horiz-adv-x="1073" 
d="M125 604q0 96 10 175q24 186 118 295q95 110 290 110q75 0 229 -16t227 -31v-90q-25 4 -193 12t-263 8q-162 0 -232 -116t-69 -347q0 -365 152 -459q60 -37 149 -36l456 20v-86q-266 -51 -456 -51q-107 0 -185 38t-122 95t-69 143q-26 86 -34 163t-8 173z" />
    <glyph glyph-name="d.smcp" horiz-adv-x="1241" 
d="M301 117h375q192 0 265 138q65 121 66 344t-93 339t-238 117h-375v-938zM184 0v1171h492q102 -1 183 -39q144 -67 205 -223q60 -156 60 -302q0 -365 -139 -498q-45 -43 -81 -63q-80 -46 -228 -46h-492z" />
    <glyph glyph-name="e.smcp" horiz-adv-x="1064" 
d="M184 170v815q0 90 56 137t157 47l574 -22v-92h-570q-63 0 -81 -22t-19 -68v-322l606 -14v-92l-606 -13v-323q0 -88 90 -88h580v-90l-615 -27q-78 0 -125 47t-47 127z" />
    <glyph glyph-name="f.smcp" horiz-adv-x="1064" 
d="M184 0v985q0 90 56 137t157 47l574 -22v-92h-570q-61 0 -79 -23t-21 -67v-324l606 -16v-93l-606 -12v-520h-117z" />
    <glyph glyph-name="g.smcp" horiz-adv-x="1179" 
d="M567 596q205 41 314 41q108 0 182 -6v-631h-84l-29 96q-80 -51 -188 -81q-108 -29 -192 -29q-166 1 -259 82q-91 82 -125 178q-20 56 -40 131q-20 74 -21 217q0 285 86 432q92 160 350 160q113 0 264 -20q150 -20 209 -31v-95q-288 29 -440 29t-218 -41
q-135 -83 -134 -438q0 -187 70 -329q79 -161 264 -161q98 0 212 40t158 73v307h-379v76z" />
    <glyph glyph-name="h.smcp" horiz-adv-x="1230" 
d="M184 -2v1169h117v-544h684v544h117v-1169h-117v506h-684v-506h-117z" />
    <glyph glyph-name="i.smcp" horiz-adv-x="428" 
d="M184 0v1167h117v-1167h-117z" />
    <glyph glyph-name="j.smcp" horiz-adv-x="679" 
d="M436 340v827h117v-827q0 -229 -115 -303q-171 -97 -358 6l8 82q186 -34 251 -3q97 47 97 218z" />
    <glyph glyph-name="k.smcp" horiz-adv-x="1126" 
d="M184 -2v1169h117v-536h191l415 536h146l-459 -594l459 -575h-146l-418 514h-188v-514h-117z" />
    <glyph glyph-name="l.smcp" horiz-adv-x="1032" 
d="M184 176v991h117v-966q-2 -49 23 -67t75 -17h559v-117h-598q-84 0 -130 46t-46 130z" />
    <glyph glyph-name="m.smcp" horiz-adv-x="1505" 
d="M125 0l125 1169h137l375 -970l377 970h131l119 -1169h-113l-96 950l-367 -950h-96l-371 958l-110 -958h-111z" />
    <glyph glyph-name="n.smcp" horiz-adv-x="1245" 
d="M184 0v1169h111l709 -954v954h114v-1169h-108l-709 961v-961h-117z" />
    <glyph glyph-name="o.smcp" horiz-adv-x="1243" 
d="M920 991q-61 70 -270 70t-277 -47q-69 -47 -98 -147q-29 -99 -31 -255q-3 -260 54 -379q47 -95 182 -117q56 -10 142 -10t138 8q53 8 106 38t82 80q64 111 63 344t-42 331q-23 53 -49 84zM125 602q0 336 125 461q66 67 152 91t194 24q107 0 163 -6q134 -13 213 -68
q79 -56 117 -178q37 -122 37 -305t-19 -288q-37 -206 -152 -274q-115 -69 -308 -69t-297 38q-171 64 -211 326q-14 92 -14 248z" />
    <glyph glyph-name="p.smcp" horiz-adv-x="1085" 
d="M256 590h422q89 0 128 30q38 30 52 80t14 127q4 111 -53 166t-141 56h-422v-459zM137 0v1165h541q117 0 209 -71q47 -37 75 -103q28 -65 28 -145q-1 -224 -85 -299q-54 -50 -106 -61t-125 -11l-418 23v-498h-119z" />
    <glyph glyph-name="q.smcp" horiz-adv-x="1243" 
d="M590 -68h80q133 -147 350 -71v-125q-108 -45 -257 3q-61 19 -111 70t-62 123zM242 558q0 -334 132 -405q50 -28 106 -37q56 -10 142 -10t138 8q53 8 105 38t81 80q62 108 63 319q1 212 -17 280t-32 103q-16 35 -54 69t-105 46t-144 12t-135 -2q-78 -3 -152 -48
q-41 -25 -85 -115q-43 -90 -43 -338zM125 602q0 336 125 461q66 67 152 91t194 24q107 0 163 -6q134 -13 213 -68q79 -56 117 -178q37 -122 37 -305t-19 -288q-37 -206 -152 -274q-115 -69 -308 -69t-297 38q-171 64 -211 326q-14 92 -14 248z" />
    <glyph glyph-name="r.smcp" horiz-adv-x="1099" 
d="M254 596h430q66 0 110 33q80 61 80 209t-99 192q-49 23 -97 23h-424v-457zM137 0v1169h541q169 0 259 -122q54 -73 54 -213q0 -141 -64 -238q-65 -96 -182 -104l283 -492h-135l-268 479q-369 25 -371 29v-508h-117z" />
    <glyph glyph-name="s.smcp" horiz-adv-x="1112" 
d="M125 766v127q0 281 283 281q231 0 532 -37v-88q-332 10 -532 10q-166 0 -166 -166v-127q0 -90 36 -112q15 -9 22 -13t33 -6t34 -3t41 -1h321q131 0 199 -65t67 -181v-143q0 -163 -92 -216q-76 -46 -177 -46t-303 12t-253 28v84q362 -8 559 -8q74 0 112 52t38 94v143
q0 67 -35 99t-115 32h-321q-100 0 -160 20q-124 42 -123 230z" />
    <glyph glyph-name="t.smcp" horiz-adv-x="1073" 
d="M80 1051v116h919v-116h-401v-1051h-117v1051h-401z" />
    <glyph glyph-name="u.smcp" horiz-adv-x="1265" 
d="M182 532v635h119v-635q0 -208 52 -301t174 -114q57 -11 143 -11q169 -1 258 86q90 87 90 340v635h119v-635q0 -267 -94 -397q-43 -57 -107 -91t-126 -44t-136 -10t-160 7q-134 11 -228 117q-69 78 -91 235q-13 81 -13 183z" />
    <glyph glyph-name="v.smcp" horiz-adv-x="1216" 
d="M80 1167h129l407 -991l400 991h127l-469 -1167h-113z" />
    <glyph glyph-name="w.smcp" horiz-adv-x="1724" 
d="M80 1167h129l371 -993l354 993h127l-133 -381l241 -612l361 993h121l-424 -1167h-117l-244 627l-223 -627h-121z" />
    <glyph glyph-name="x.smcp" horiz-adv-x="1140" 
d="M80 0l420 586l-416 581h152l337 -477l342 477h154l-422 -581l418 -586h-147l-345 479l-346 -479h-147z" />
    <glyph glyph-name="y.smcp" horiz-adv-x="1155" 
d="M641 -2h-117v391l-444 778h129l375 -655l368 655h129l-440 -778v-391z" />
    <glyph glyph-name="z.smcp" horiz-adv-x="1019" 
d="M80 0v117l713 934h-713v116h866v-116l-706 -934h706v-117h-866z" />
    <glyph glyph-name="grave.smcp" horiz-adv-x="466" 
d="M45 1360h148l229 -273h-105z" />
    <glyph glyph-name="aogonek.smcp" horiz-adv-x="1245" 
d="M408 449h432l-207 555zM92 0l483 1167h117l447 -1167h-29q-92 -59 -122 -126t11 -110t138 -45v-90q-70 -10 -130 13q-118 45 -127 160q-5 50 38 106t131 92h-39l-131 332h-519l-141 -332h-127z" />
    <glyph glyph-name="rcommaaccent.smcp" horiz-adv-x="1099" 
d="M254 596h430q66 0 110 33q80 61 80 209t-99 192q-49 23 -97 23h-424v-457zM137 0v1169h541q169 0 259 -122q54 -73 54 -188q1 -115 -27 -191t-84 -123t-135 -53l283 -492h-135l-268 479q-369 25 -371 29v-508h-117zM492 -279v105q0 41 36 41h70q35 0 35 -41v-180
q0 -80 -45 -100t-90 -13v43q49 -2 49 47v60h-19q-36 -1 -36 38z" />
    <glyph glyph-name="itilde.smcp" horiz-adv-x="428" 
d="M184 0v1167h117v-1167h-117zM343 1397q19 0 33 2t28 8t26 10t55 31t58 33l32 -62q-15 -10 -63 -52q-95 -82 -166 -75q-55 2 -127 49q-71 47 -107 47t-66 -10q-30 -12 -71 -37t-61 -34l-31 61q153 129 234 127q51 -4 129 -51t97 -47z" />
    <glyph glyph-name="lcommaaccent.smcp" horiz-adv-x="1032" 
d="M184 176v991h117v-966q-2 -49 23 -67t75 -17h559v-117h-598q-84 0 -130 46t-46 130zM520 -279v105q0 41 37 41h70q37 0 37 -41v-180q0 -78 -46 -99t-90 -14v43q47 -2 47 47v60h-18q-37 -1 -37 38z" />
    <glyph glyph-name="dieresis.smcp" horiz-adv-x="911" 
d="M637 1191q-1 33 23 57t58 24t56 -24t23 -58q0 -34 -23 -56q-22 -24 -56 -24t-58 24t-23 57zM115 1191q-1 33 23 57t64 24t63 -41q11 -18 11 -46q0 -27 -24 -51t-56 -24q-34 0 -58 24t-23 57z" />
    <glyph glyph-name="scaron.smcp" horiz-adv-x="1112" 
d="M125 766v127q0 281 283 281q231 0 532 -37v-88q-332 10 -532 10q-166 0 -166 -166v-127q0 -90 36 -112q15 -9 22 -13t33 -6t34 -3t41 -1h321q131 0 199 -65t67 -181v-143q0 -163 -92 -216q-76 -46 -177 -46t-303 12t-253 28v84q362 -8 559 -8q74 0 112 52t38 94v143
q0 67 -35 99t-115 32h-321q-100 0 -160 20q-124 42 -123 230zM270 1563h109l186 -177l180 177h109l-231 -267h-113z" />
    <glyph glyph-name="emacron.smcp" horiz-adv-x="1064" 
d="M184 170v815q0 90 56 137t157 47l574 -22v-92h-570q-63 0 -81 -22t-19 -68v-322l606 -14v-92l-606 -13v-323q0 -88 90 -88h580v-90l-615 -27q-78 0 -125 47t-47 127zM317 1294v97h570v-97h-570z" />
    <glyph glyph-name="gcommaaccent.smcp" horiz-adv-x="1179" 
d="M547 -281v105q0 41 37 41h67q37 0 37 -41v-180q0 -82 -43 -101t-92 -12v43q47 -2 47 47v60h-16q-37 -1 -37 38zM1057 0h-86l-29 84q-152 -98 -371 -98q-255 0 -371 215q-32 57 -53 156q-22 100 -22 150v79q0 150 20 254q19 104 71 185q102 161 364 161q70 0 213 -16
t235 -35v-93q-326 29 -447 29q-120 0 -192 -40q-145 -81 -145 -441q0 -232 79 -356t257 -130q121 -4 215 23t145 66v325h-393v78q217 41 327 41t183 -6v-631z" />
    <glyph glyph-name="tbar.smcp" horiz-adv-x="1011" 
d="M45 1051v116h922v-116h-402v-344h215v-82h-215v-625h-116v625h-224v82h224v344h-404z" />
    <glyph glyph-name="zcaron.smcp" horiz-adv-x="1019" 
d="M80 0v117l713 934h-713v116h866v-116l-706 -934h706v-117h-866zM221 1556h109l186 -176l180 176h109l-234 -266h-110z" />
    <glyph glyph-name="macron.smcp" horiz-adv-x="825" 
d="M115 1085v97h598v-97h-598z" />
    <glyph glyph-name="degree.smcp" horiz-adv-x="643" 
d="M188 961q0 -55 39 -95t95 -41q56 0 95 40q38 39 38 95t-39 95t-94 39q-54 0 -94 -39t-40 -94zM115 959q0 87 60 149q61 62 147 63q86 0 146 -61t60 -149q0 -87 -60 -149t-146 -62t-147 61q-60 61 -60 148z" />
    <glyph glyph-name="acute.smcp" horiz-adv-x="466" 
d="M45 1087l229 273h148l-272 -273h-105z" />
    <glyph glyph-name="caron.smcp" horiz-adv-x="813" 
d="M115 1395h92l190 -203l205 203h96l-249 -308h-111z" />
    <glyph glyph-name="eng.smcp" horiz-adv-x="1245" 
d="M184 0v1169h111l709 -956v956h114v-1284q-6 -324 -364 -323v96q184 14 229 118q20 46 21 113v115l-703 957v-961h-117z" />
    <glyph glyph-name="amacron.smcp" horiz-adv-x="1200" 
d="M395 449h432l-206 555zM80 0l483 1167h117l446 -1167h-127l-131 332h-520l-141 -332h-127zM338 1290v96h569v-96h-569z" />
    <glyph glyph-name="aacute.smcp" horiz-adv-x="1200" 
d="M395 449h432l-206 555zM80 0l483 1167h117l446 -1167h-127l-131 332h-520l-141 -332h-127zM571 1290l230 273h145l-272 -273h-103z" />
    <glyph glyph-name="acircumflex.smcp" horiz-adv-x="1200" 
d="M395 449h432l-206 555zM80 0l483 1167h117l446 -1167h-127l-131 332h-520l-141 -332h-127zM330 1290l250 266h110l225 -266h-108l-174 176l-193 -176h-110z" />
    <glyph glyph-name="atilde.smcp" horiz-adv-x="1200" 
d="M395 449h432l-206 555zM80 0l483 1167h117l446 -1167h-127l-131 332h-520l-141 -332h-127zM735 1397q62 0 119 36q18 11 26 16t29 17l25 15l35 -62q-19 -13 -66 -54q-93 -81 -164 -73q-55 2 -127 49t-119 48t-106 -36t-80 -46l-31 61q153 129 234 127q51 -4 129 -51
t96 -47z" />
    <glyph glyph-name="adieresis.smcp" horiz-adv-x="1200" 
d="M395 449h432l-206 555zM80 0l483 1167h117l446 -1167h-127l-131 332h-520l-141 -332h-127zM803 1371q-1 33 23 57t58 24t58 -24t23 -52q1 -28 -11 -45q-25 -39 -65 -40q-39 -1 -63 23t-23 57zM281 1371q-1 33 23 57t58 24t57 -24t23 -58t-24 -56q-24 -24 -57 -24
q-34 0 -57 24t-23 57z" />
    <glyph glyph-name="aring.smcp" horiz-adv-x="1200" 
d="M395 449h432l-206 555zM626 1579q56 0 104 -28q48 -29 75 -77t27 -121t-50 -123t-101 -64l445 -1166h-127l-131 332h-520l-141 -332h-127l483 1167h4q-80 23 -122 96q-28 48 -27 105q0 56 28 106t75 78q49 28 105 27zM489 1368q0 -55 40 -94q41 -39 97 -39t95 39t39 94
t-39 95t-94 40t-97 -40t-41 -95z" />
    <glyph glyph-name="ae.smcp" horiz-adv-x="1626" 
d="M762 477v543l-309 -543h309zM1534 1051h-551q-66 -1 -84 -19t-20 -71v-326l591 -14v-93l-591 -16v-317q0 -53 26 -70q27 -16 68 -16h561v-91l-590 -26q-117 0 -161 80q-22 39 -21 92v196h-369l-209 -360h-131l555 987q61 109 137 141t234 37l555 -22v-92z" />
    <glyph glyph-name="iogonek.smcp" horiz-adv-x="428" 
d="M188 0v1167h117v-1167h-18q-92 -59 -122 -126t10 -110t136 -45v-90q-68 -10 -128 13q-60 22 -91 66q-74 104 1 200q44 55 132 92h-37z" />
    <glyph glyph-name="ccaron.smcp" horiz-adv-x="1073" 
d="M125 604q0 96 10 175q24 186 118 295q95 110 290 110q75 0 229 -16t227 -31v-90q-25 4 -193 12t-263 8q-162 0 -232 -116t-69 -347q0 -365 152 -459q60 -37 149 -36l456 20v-86q-266 -51 -456 -51q-107 0 -185 38t-122 95t-69 143q-26 86 -34 163t-8 173zM322 1583h108
l186 -176l181 176h108l-231 -266h-113z" />
    <glyph glyph-name="eacute.smcp" horiz-adv-x="1064" 
d="M184 170v815q0 90 56 137t157 47l574 -22v-92h-570q-63 0 -81 -22t-19 -68v-322l606 -14v-92l-606 -13v-323q0 -88 90 -88h580v-90l-615 -27q-78 0 -125 47t-47 127zM553 1294l229 273h146l-273 -273h-102z" />
    <glyph glyph-name="eogonek.smcp" horiz-adv-x="1064" 
d="M184 170v815q0 90 56 137t157 47l574 -22v-92h-570q-63 0 -81 -22t-19 -68v-322l606 -14v-92l-606 -13v-323q0 -88 90 -88h580v-90q-92 -59 -122 -126t11 -111t137 -44v-90q-70 -10 -130 12t-91 67q-73 103 2 199q41 53 124 90l-546 -24q-78 0 -125 47t-47 127z" />
    <glyph glyph-name="edieresis.smcp" horiz-adv-x="1064" 
d="M184 170v815q0 90 56 137t157 47l574 -22v-92h-570q-63 0 -81 -22t-19 -68v-322l606 -14v-92l-606 -13v-323q0 -88 90 -88h580v-90l-615 -27q-78 0 -125 47t-47 127zM776 1399q0 33 24 57t58 23q34 0 56 -24q24 -23 24 -57t-24 -58t-58 -24t-56 26q-24 24 -24 57z
M254 1399q0 33 24 57t58 23q34 0 56 -24q22 -23 22 -57t-23 -58t-57 -24t-56 26q-24 24 -24 57z" />
    <glyph glyph-name="edotaccent.smcp" horiz-adv-x="1064" 
d="M184 170v815q0 90 56 137t157 47l574 -22v-92h-570q-63 0 -81 -22t-19 -68v-322l606 -14v-92l-606 -13v-323q0 -88 90 -88h580v-90l-615 -27q-78 0 -125 47t-47 127zM578 1294q-41 0 -41 39v117q0 41 41 41h73q41 0 41 -41v-117q0 -39 -41 -39h-73z" />
    <glyph glyph-name="iacute.smcp" horiz-adv-x="428" 
d="M184 0v1167h117v-1167h-117zM203 1290l229 273h146l-273 -273h-102z" />
    <glyph glyph-name="icircumflex.smcp" horiz-adv-x="428" 
d="M184 0v1167h117v-1167h-117zM-41 1290l250 266h108l226 -266h-109l-174 176l-192 -176h-109z" />
    <glyph glyph-name="imacron.smcp" horiz-adv-x="428" 
d="M190 0v1167h117v-1167h-117zM-27 1290v96h572v-96h-572z" />
    <glyph glyph-name="dcroat.smcp" horiz-adv-x="1224" 
d="M303 119h324q193 0 268 134q66 116 67 343q0 228 -90 340t-237 113h-332v-414h221v-82h-221v-434zM1087 609q0 -365 -141 -500q-45 -43 -81 -63q-80 -46 -218 -46h-465v553h-137v82h137v536h230l243 -2q97 1 177 -37t126 -98t88 -168q41 -109 41 -257z" />
    <glyph glyph-name="ncommaaccent.smcp" horiz-adv-x="1245" 
d="M184 0v1169h111l709 -954v954h114v-1169h-108l-709 961v-961h-117zM725 -354q0 -115 -108 -115h-19l-8 2v43q49 -2 49 47v60h-18q-37 -1 -37 38v105q0 41 37 41h69q35 0 35 -41v-180z" />
    <glyph glyph-name="omacron.smcp" horiz-adv-x="1243" 
d="M625 1061q-184 0 -252 -47q-69 -47 -98 -147q-29 -99 -31 -255q-3 -260 54 -379q47 -95 182 -117q56 -10 142 -10t138 8q53 8 106 38t82 80q64 111 63 323t-19 277t-34 100q-23 57 -80 90q-58 32 -127 35q-69 4 -126 4zM125 602q0 336 125 461q66 67 152 91t194 24
q107 0 163 -6q134 -13 213 -68q79 -56 117 -178q37 -122 37 -305t-19 -288q-37 -206 -152 -274q-115 -69 -308 -69t-297 38q-171 64 -211 326q-14 92 -14 248zM342 1315v96h571v-96h-571z" />
    <glyph glyph-name="kcommaaccent.smcp" horiz-adv-x="1126" 
d="M184 -2v1169h117v-536h191l415 536h146l-459 -594l459 -575h-146l-418 514h-188v-514h-117zM514 -281v105q0 41 39 41h68q37 0 36 -41v-178q0 -63 -28 -88q-28 -24 -48 -26q-20 -1 -32 -2t-21 1h-6v43q47 0 47 47v62h-16q-39 -1 -39 36z" />
    <glyph glyph-name="ocircumflex.smcp" horiz-adv-x="1243" 
d="M625 1061q-184 0 -252 -47q-69 -47 -98 -147q-29 -99 -31 -255q-3 -260 54 -379q47 -95 182 -117q56 -10 142 -10t138 8q53 8 106 38t82 80q64 111 63 323t-19 277t-34 100q-23 57 -80 90q-58 32 -127 35q-69 4 -126 4zM125 602q0 336 125 461q66 67 152 91t194 24
q107 0 163 -6q134 -13 213 -68q79 -56 117 -178q37 -122 37 -305t-19 -288q-37 -206 -152 -274q-115 -69 -308 -69t-297 38q-171 64 -211 326q-14 92 -14 248zM330 1294l250 267h110l223 -267h-108l-174 176l-193 -176h-108z" />
    <glyph glyph-name="otilde.smcp" horiz-adv-x="1243" 
d="M625 1061q-184 0 -252 -47q-69 -47 -98 -147q-29 -99 -31 -255q-3 -260 54 -379q47 -95 182 -117q56 -10 142 -10t138 8q53 8 106 38t82 80q64 111 63 323t-19 277t-34 100q-23 57 -80 90q-58 32 -127 35q-69 4 -126 4zM125 602q0 336 125 461q66 67 152 91t194 24
q107 0 163 -6q134 -13 213 -68q79 -56 117 -178q37 -122 37 -305t-19 -288q-37 -206 -152 -274q-115 -69 -308 -69t-297 38q-171 64 -211 326q-14 92 -14 248zM759 1407q19 0 33 2t28 8t26 10t58 33t54 31l33 -61q-3 -4 -27 -24t-33 -26q-100 -84 -169 -77q-55 2 -127 49
t-108 47q-35 0 -65 -11t-71 -36t-61 -35l-31 61q155 130 229 126q56 -3 134 -50t97 -47z" />
    <glyph glyph-name="odieresis.smcp" horiz-adv-x="1243" 
d="M625 1061q-184 0 -252 -47q-69 -47 -98 -147q-29 -99 -31 -255q-3 -260 54 -379q47 -95 182 -117q56 -10 142 -10t138 8q53 8 106 38t82 80q64 111 63 323t-19 277t-34 100q-23 57 -80 90q-58 32 -127 35q-69 4 -126 4zM125 602q0 336 125 461q66 67 152 91t194 24
q107 0 163 -6q134 -13 213 -68q79 -56 117 -178q37 -122 37 -305t-19 -288q-37 -206 -152 -274q-115 -69 -308 -69t-297 38q-171 64 -211 326q-14 92 -14 248zM963 1381q0 -33 -23 -57q-22 -24 -56 -24t-58 24t-25 62q0 39 41 65q18 11 47 11t51 -24t23 -57zM281 1381
q0 34 23 58q24 23 58 23t56 -24t22 -57t-22 -57t-57 -24q-34 0 -57 24t-23 57z" />
    <glyph glyph-name="oslash.smcp" horiz-adv-x="1222" 
d="M997 601q0 255 -67 355q-57 -73 -592 -778q74 -70 269 -72q93 0 145 8q131 21 183 116q62 116 62 371zM881 1014q-66 47 -257 47q-190 0 -256 -47t-96 -148q-30 -100 -30 -311t51 -311zM1114 588q0 -254 -54 -382q-54 -129 -157 -172q-103 -44 -257 -44q-156 0 -240 19
t-144 71q-37 -49 -57 -80h-94q100 133 100 137q-86 131 -86 467t122 459q65 67 151 91t220 24q238 0 336 -68q13 20 43 57h97q-51 -72 -84 -110q104 -123 104 -469z" />
    <glyph glyph-name="uogonek.smcp" horiz-adv-x="1161" 
d="M209 532v635h119v-635q0 -131 19 -214q36 -157 176 -194q65 -18 161 -18t158 18q138 41 180 197q23 85 22 211v635h119v-635q0 -383 -200 -488q-66 -34 -122 -43t-123 -11q-85 -57 -113 -121t12 -108t137 -44v-92q-68 -8 -129 15q-119 45 -128 159q-5 51 37 103t119 88
q-187 5 -275 63q-87 59 -128 168t-41 311z" />
    <glyph glyph-name="uacute.smcp" horiz-adv-x="1265" 
d="M182 532v635h119v-635q0 -258 86 -344q47 -47 112 -64q65 -18 161 -18t157 18q138 42 178 197q23 85 23 211v635h119v-635q0 -267 -94 -397q-43 -57 -107 -91t-126 -44t-136 -10t-160 7q-134 11 -228 117q-69 78 -91 235q-13 81 -13 183zM608 1290l230 273h145l-272 -273
h-103z" />
    <glyph glyph-name="ucircumflex.smcp" horiz-adv-x="1265" 
d="M182 532v635h119v-635q0 -258 86 -344q47 -47 112 -64q65 -18 161 -18t157 18q138 42 178 197q23 85 23 211v635h119v-635q0 -267 -94 -397q-43 -57 -107 -91t-126 -44t-136 -10t-160 7q-134 11 -228 117q-69 78 -91 235q-13 81 -13 183zM365 1290l249 266h111l223 -266
h-108l-174 176l-191 -176h-110z" />
    <glyph glyph-name="udieresis.smcp" horiz-adv-x="1265" 
d="M182 532v635h119v-635q0 -258 86 -344q47 -47 112 -64q65 -18 161 -18t157 18q138 42 178 197q23 85 23 211v635h119v-635q0 -267 -94 -397q-43 -57 -107 -91t-126 -44t-136 -10t-160 7q-134 11 -228 117q-69 78 -91 235q-13 81 -13 183zM836 1371q0 33 24 57t56 24
q34 0 58 -24t24 -58t-24 -56q-24 -24 -58 -24t-57 24t-23 57zM313 1371q0 33 24 57q23 24 57 24t58 -24t24 -58t-24 -56q-24 -24 -58 -24t-58 24t-23 57z" />
    <glyph glyph-name="utilde.smcp" horiz-adv-x="1265" 
d="M182 532v635h119v-635q0 -258 86 -344q47 -47 112 -64q65 -18 161 -18t157 18q138 42 178 197q23 85 23 211v635h119v-635q0 -267 -94 -397q-43 -57 -107 -91t-126 -44t-136 -10t-160 7q-134 11 -228 117q-69 78 -91 235q-13 81 -13 183zM542 1389q-26 0 -54 -7t-78 -37
t-68 -38l-31 61q153 129 234 127q51 -3 169 -75q38 -24 56 -24t32 3q14 2 28 8t26 10q12 3 30 15t28 17q8 5 28 17t27 15l35 -62q-36 -24 -57 -45t-74 -54q-52 -33 -99 -28q-45 0 -88 25t-80 49q-38 24 -64 23z" />
    <glyph glyph-name="umacron.smcp" horiz-adv-x="1265" 
d="M182 532v635h119v-635q0 -258 86 -344q47 -47 112 -64q65 -18 161 -18t157 18q138 42 178 197q23 85 23 211v635h119v-635q0 -267 -94 -397q-43 -57 -107 -91t-126 -44t-136 -10t-160 7q-134 11 -228 117q-69 78 -91 235q-13 81 -13 183zM371 1290v96h571v-96h-571z" />
    <glyph glyph-name="germandbls.smcp" horiz-adv-x="2062" 
d="M1106 903q0 133 65 202q66 69 218 69q207 0 518 -37v-88q-317 10 -518 10q-90 0 -128 -39t-38 -117v-137q0 -98 42 -117q42 -18 81 -18h350q176 0 237 -114q29 -54 29 -132v-143q0 -161 -92 -216q-76 -46 -176 -46t-296 12t-247 28v84q348 -8 545 -8q78 0 114 41t35 105
v143q0 67 -35 99t-114 32h-307q-150 0 -217 53t-66 197v137zM940 242q0 -262 -266 -262q-102 0 -298 12t-247 28v84l545 -8q80 0 114 41t35 105v143q0 91 -61 117q-33 14 -88 14h-307q-151 0 -217 54t-66 196v137q0 133 66 202t217 69q213 0 518 -37v-88l-518 10
q-88 0 -127 -39t-39 -117v-137q0 -90 36 -112q15 -9 22 -13t33 -6t34 -3t41 -1h307q197 0 250 -143q16 -46 16 -103v-143z" />
    <glyph glyph-name="agrave.smcp" horiz-adv-x="1200" 
d="M395 449h432l-206 555zM80 0l483 1167h117l446 -1167h-127l-131 332h-520l-141 -332h-127zM262 1563h148l227 -273h-102z" />
    <glyph glyph-name="ccedilla.smcp" horiz-adv-x="1073" 
d="M125 604q0 96 10 175q24 186 118 295q95 110 290 110q75 0 229 -16t227 -31v-90q-25 4 -193 12t-263 8q-162 0 -232 -116t-69 -347q0 -365 152 -459q60 -37 149 -36l456 20v-86q-266 -51 -456 -51q-107 0 -185 38t-122 95t-69 143q-26 86 -34 163t-8 173zM680 -78
q0 -160 -42 -219t-165 -59h-88v55l92 22q57 15 80 61t21 140h102z" />
    <glyph glyph-name="eth.smcp" horiz-adv-x="1228" 
d="M315 119h324q194 0 267 134q65 117 66 344t-89 339t-236 113h-332v-414h222v-82h-222v-434zM1100 610q0 -363 -144 -501q-44 -43 -80 -63q-79 -46 -217 -46h-466v553h-136v82h136v536h229l244 -2q100 1 178 -37t125 -98t89 -167q42 -108 42 -257z" />
    <glyph glyph-name="egrave.smcp" horiz-adv-x="1064" 
d="M184 170v815q0 90 56 137t157 47l574 -22v-92h-570q-63 0 -81 -22t-19 -68v-322l606 -14v-92l-606 -13v-323q0 -88 90 -88h580v-90l-615 -27q-78 0 -125 47t-47 127zM307 1567h146l229 -273h-102z" />
    <glyph glyph-name="ecircumflex.smcp" horiz-adv-x="1064" 
d="M184 170v815q0 90 56 137t157 47l574 -22v-92h-570q-63 0 -81 -22t-19 -68v-322l606 -14v-92l-606 -13v-323q0 -88 90 -88h580v-90l-615 -27q-78 0 -125 47t-47 127zM313 1294l250 267h111l223 -267h-109l-174 176l-192 -176h-109z" />
    <glyph glyph-name="igrave.smcp" horiz-adv-x="428" 
d="M184 0v1167h117v-1167h-117zM-68 1563h148l229 -273h-104z" />
    <glyph glyph-name="idieresis.smcp" horiz-adv-x="428" 
d="M184 0v1167h117v-1167h-117zM428 1371q0 33 25 57t57 24t56 -24t24 -64t-39 -62q-18 -12 -46 -12q-29 0 -53 24t-24 57zM-92 1365q0 39 24 63t56 24t56 -24t24 -52t-10 -45q-23 -39 -58 -40t-53 11q-39 23 -39 63z" />
    <glyph glyph-name="ntilde.smcp" horiz-adv-x="1245" 
d="M184 0v1169h111l709 -954v954h114v-1169h-108l-709 961v-961h-117zM652 1446q77 -47 104 -47t48 8q20 8 32 12q12 3 30 15t28 17t28 17q20 12 26 15l35 -62q-41 -28 -55 -42q-84 -89 -188 -86q-39 1 -153 74q-36 24 -71 24q-36 1 -64 -11t-69 -37t-61 -34l-31 61
q153 129 233 127q51 -4 128 -51z" />
    <glyph glyph-name="ograve.smcp" horiz-adv-x="1243" 
d="M625 1061q-184 0 -252 -47q-69 -47 -98 -147q-29 -99 -31 -255q-3 -260 54 -379q47 -95 182 -117q56 -10 142 -10t138 8q53 8 106 38t82 80q64 111 63 323t-19 277t-34 100q-23 57 -80 90q-58 32 -127 35q-69 4 -126 4zM125 602q0 336 125 461q66 67 152 91t194 24
q107 0 163 -6q134 -13 213 -68q79 -56 117 -178q37 -122 37 -305t-19 -288q-37 -206 -152 -274q-115 -69 -308 -69t-297 38q-171 64 -211 326q-14 92 -14 248zM322 1573h147l229 -273h-104z" />
    <glyph glyph-name="oacute.smcp" horiz-adv-x="1243" 
d="M625 1061q-184 0 -252 -47q-69 -47 -98 -147q-29 -99 -31 -255q-3 -260 54 -379q47 -95 182 -117q56 -10 142 -10t138 8q53 8 106 38t82 80q64 111 63 323t-19 277t-34 100q-23 57 -80 90q-58 32 -127 35q-69 4 -126 4zM125 602q0 336 125 461q66 67 152 91t194 24
q107 0 163 -6q134 -13 213 -68q79 -56 117 -178q37 -122 37 -305t-19 -288q-37 -206 -152 -274q-115 -69 -308 -69t-297 38q-171 64 -211 326q-14 92 -14 248zM594 1300l229 273h146l-273 -273h-102z" />
    <glyph glyph-name="ugrave.smcp" horiz-adv-x="1265" 
d="M182 532v635h119v-635q0 -258 86 -344q47 -47 112 -64q65 -18 161 -18t157 18q138 42 178 197q23 85 23 211v635h119v-635q0 -267 -94 -397q-43 -57 -107 -91t-126 -44t-136 -10t-160 7q-134 11 -228 117q-69 78 -91 235q-13 81 -13 183zM350 1563h146l229 -273h-102z
" />
    <glyph glyph-name="yacute.smcp" horiz-adv-x="1155" 
d="M641 -2h-117v391l-444 778h129l375 -655l368 655h129l-440 -778v-391zM510 1290l229 273h146l-273 -273h-102z" />
    <glyph glyph-name="thorn.smcp" 
d="M287 346h383q63 0 101 20q81 42 81 238q0 223 -182 234h-383v-492zM172 0v1165h115v-211h383q137 0 218 -91t81 -261q0 -274 -140 -346q-62 -33 -159 -33q-279 0 -383 29v-252h-115z" />
    <glyph glyph-name="quotesinglbase.smcp" horiz-adv-x="475" 
d="M203 -2q-51 0 -51 51v133q0 57 51 58h92q49 0 49 -58v-219q0 -53 -18 -89t-45 -48q-59 -26 -119 -16v55q63 -2 63 65v68h-22z" />
    <glyph glyph-name="quotedblleft.smcp" horiz-adv-x="763" 
d="M279 991q51 0 53 -51v-133q0 -55 -53 -55h-91q-51 0 -51 55v219q0 53 20 89q41 78 162 65v-58q-63 2 -63 -63v-68h23zM434 807v219q0 53 20 89q19 36 61 54t85 13l21 -2v-58q-68 2 -68 -63v-68h27q20 0 34 -13t15 -38v-133q0 -55 -49 -55h-95q-51 0 -51 55z" />
    <glyph glyph-name="quotedblright.smcp" horiz-adv-x="763" 
d="M434 993v133q0 55 53 56h93q49 0 49 -56v-221q-1 -53 -19 -88t-45 -47q-63 -28 -119 -16v55q63 -2 64 63v70h-23q-53 0 -53 51zM137 993v133q0 55 51 56h93q51 0 51 -56v-221q0 -53 -20 -88t-46 -47q-63 -28 -119 -16v55q66 -2 66 63v70h-25q-51 0 -51 51z" />
    <glyph glyph-name="quotedblbase.smcp" horiz-adv-x="763" 
d="M434 49v135q0 55 53 56h93q49 0 49 -56v-221q-1 -53 -19 -88q-44 -84 -164 -65v57q63 -2 64 63v68h-23q-53 0 -53 51zM137 49v135q0 55 51 56h93q51 0 51 -56v-221q0 -53 -20 -88q-47 -84 -165 -65v57q66 -2 66 63v68h-25q-51 0 -51 51z" />
    <glyph glyph-name="exclamdown.smcp" horiz-adv-x="542" 
d="M203 0l12 825h111l12 -825h-135zM188 1008v120q0 39 39 39h82q17 0 29 -11t12 -28v-120q0 -43 -41 -43h-82q-39 0 -39 43z" />
    <glyph glyph-name="ordmasculine.smcp" horiz-adv-x="868" 
d="M255 1050q-56 -52 -56 -235t62 -230q34 -26 72 -34t98 -8t92 4q84 10 113 66t34 196q0 193 -57 243q-31 28 -69 36t-109 8t-109 -8t-71 -38zM125 297v90h616v-90h-616zM102 818q0 210 71 292t263 82t262 -81q68 -81 68 -292t-70 -292t-260 -81t-262 81t-72 291z" />
    <glyph glyph-name="ordfeminine.smcp" horiz-adv-x="851" 
d="M352 748h238l-109 329zM145 461l277 708h117l243 -708h-92l-69 203h-302l-75 -203h-99zM137 301v90h649v-90h-649z" />
    <glyph glyph-name="Euro.smcp" horiz-adv-x="1050" 
d="M600 1065q-103 -1 -156 -21q-134 -52 -146 -213q-3 -39 -3 -92l379 -12v-70l-379 -10v-145l379 -10v-72q-25 0 -65 -1t-123 -3t-138 -5l-53 -3q0 -150 75 -224q76 -74 202 -74t226 11q100 10 128 12q27 2 49 6v-92q-201 -57 -404 -57q-105 0 -179 39t-117 83t-71 120
t-28 176l-139 12v69l139 13v145l-139 12v66l139 14q0 442 395 443q139 0 398 -47v-93q-266 23 -369 23z" />
    <glyph glyph-name="lcaron.smcp" horiz-adv-x="1032" 
d="M457 1251h116v-137l-16 -274h-80l-20 274v137zM184 176v991h117v-966q-2 -49 23 -67t75 -17h559v-117h-598q-84 0 -130 46t-46 130z" />
    <glyph glyph-name="sacute.smcp" horiz-adv-x="1112" 
d="M125 766v127q0 281 283 281q231 0 532 -37v-88q-332 10 -532 10q-166 0 -166 -166v-127q0 -90 36 -112q15 -9 22 -13t33 -6t34 -3t41 -1h321q131 0 199 -65t67 -181v-143q0 -163 -92 -216q-76 -46 -177 -46t-303 12t-253 28v84q362 -8 559 -8q74 0 112 52t38 94v143
q0 67 -35 99t-115 32h-321q-100 0 -160 20q-124 42 -123 230zM489 1309l230 272h147l-272 -272h-105z" />
    <glyph glyph-name="scedilla.smcp" horiz-adv-x="1112" 
d="M125 766v127q0 281 283 281q231 0 532 -37v-88q-332 10 -532 10q-166 0 -166 -166v-127q0 -90 36 -112q15 -9 22 -13t33 -6t34 -3t41 -1h321q131 0 199 -65t67 -181v-143q0 -163 -92 -216q-76 -46 -177 -46t-303 12t-253 28v84q362 -8 559 -8q74 0 112 52t38 94v143
q0 67 -35 99t-115 32h-321q-100 0 -160 20q-124 42 -123 230zM610 -82q0 -160 -42 -219t-165 -59h-90v53l95 24q58 15 80 61t20 140h102z" />
    <glyph glyph-name="tcaron.smcp" horiz-adv-x="1196" 
d="M190 1051v116h920v-116h-401v-1051h-117v1051h-402zM360 1583h109l188 -176l181 176h108l-233 -266h-111z" />
    <glyph glyph-name="zacute.smcp" horiz-adv-x="1019" 
d="M80 0v117l713 934h-713v116h866v-116l-706 -934h706v-117h-866zM465 1290l229 273h146l-273 -273h-102z" />
    <glyph glyph-name="zdotaccent.smcp" horiz-adv-x="1019" 
d="M80 0v117l713 934h-713v116h866v-116l-706 -934h706v-117h-866zM434 1329v117q0 43 41 43h76q39 0 39 -43v-117q0 -39 -39 -39h-76q-21 0 -31 14t-10 25z" />
    <glyph glyph-name="racute.smcp" horiz-adv-x="1099" 
d="M254 596h430q66 0 110 33q80 61 80 209t-99 192q-49 23 -97 23h-424v-457zM137 0v1169h541q169 0 259 -122q54 -73 54 -188q1 -115 -27 -191t-84 -123t-135 -53l283 -492h-135l-268 479q-369 25 -371 29v-508h-117zM498 1292l229 273h147l-272 -273h-104z" />
    <glyph glyph-name="abreve.smcp" horiz-adv-x="1200" 
d="M395 449h432l-206 555zM80 0l483 1167h117l446 -1167h-127l-131 332h-520l-141 -332h-127zM387 1524h74q0 -93 82 -140q37 -20 81 -20q97 0 139 76q22 37 21 84h74q0 -114 -73 -173t-162 -60t-162 62q-74 63 -74 171z" />
    <glyph glyph-name="lacute.smcp" horiz-adv-x="1032" 
d="M184 176v991h117v-966q-2 -49 23 -67t75 -17h559v-117h-598q-84 0 -130 46t-46 130zM203 1290l229 273h146l-273 -273h-102z" />
    <glyph glyph-name="cacute.smcp" horiz-adv-x="1073" 
d="M125 604q0 96 10 175q24 186 118 295q95 110 290 110q75 0 229 -16t227 -31v-90q-25 4 -193 12t-263 8q-162 0 -232 -116t-69 -347q0 -365 152 -459q60 -37 149 -36l456 20v-86q-266 -51 -456 -51q-107 0 -185 38t-122 95t-69 143q-26 86 -34 163t-8 173zM524 1317
l230 272h145l-272 -272h-103z" />
    <glyph glyph-name="ecaron.smcp" horiz-adv-x="1064" 
d="M184 170v815q0 90 56 137t157 47l574 -22v-92h-570q-63 0 -81 -22t-19 -68v-322l606 -14v-92l-606 -13v-323q0 -88 90 -88h580v-90l-615 -27q-78 0 -125 47t-47 127zM299 1559h109l186 -177l180 177h109l-232 -267h-112z" />
    <glyph glyph-name="dcaron.smcp" horiz-adv-x="1234" 
d="M379 117h375q332 0 331 463q0 242 -93 358t-238 117h-375v-938zM262 0v1171h492q343 -5 428 -392q20 -95 20 -207q0 -331 -139 -463q-45 -43 -81 -63q-80 -46 -228 -46h-492zM403 1561h109l186 -177l181 177h108l-233 -267h-111z" />
    <glyph glyph-name="nacute.smcp" horiz-adv-x="1245" 
d="M184 0v1169h111l709 -954v954h114v-1169h-108l-709 961v-961h-117zM623 1292l227 273h147l-272 -273h-102z" />
    <glyph glyph-name="ncaron.smcp" horiz-adv-x="1245" 
d="M184 0v1169h111l709 -954v954h114v-1169h-108l-709 961v-961h-117zM362 1559h109l188 -177l181 177h108l-233 -267h-111z" />
    <glyph glyph-name="ohungarumlaut.smcp" horiz-adv-x="1243" 
d="M625 1061q-184 0 -252 -47q-69 -47 -98 -147q-29 -99 -31 -255q-3 -260 54 -379q47 -95 182 -117q56 -10 142 -10t138 8q53 8 106 38t82 80q64 111 63 323t-19 277t-34 100q-23 57 -80 90q-58 32 -127 35q-69 4 -126 4zM125 602q0 336 125 461q66 67 152 91t194 24
q107 0 163 -6q134 -13 213 -68q79 -56 117 -178q37 -122 37 -305t-19 -288q-37 -206 -152 -274q-115 -69 -308 -69t-297 38q-171 64 -211 326q-14 92 -14 248zM715 1300l229 273h146l-273 -273h-102zM436 1300l228 273h147l-272 -273h-103z" />
    <glyph glyph-name="rcaron.smcp" horiz-adv-x="1099" 
d="M254 596h430q66 0 110 33q80 61 80 209t-99 192q-49 23 -97 23h-424v-457zM137 0v1169h541q169 0 259 -122q54 -73 54 -188q1 -115 -27 -191t-84 -123t-135 -53l283 -492h-135l-268 479q-369 25 -371 29v-508h-117zM252 1559h108l187 -177l180 177h109l-232 -267h-112z
" />
    <glyph glyph-name="uring.smcp" horiz-adv-x="1265" 
d="M182 532v635h119v-635q0 -258 86 -344q47 -47 112 -64q65 -18 161 -18t157 18q138 42 178 197q23 85 23 211v635h119v-635q0 -267 -94 -397q-43 -57 -107 -91t-126 -44t-136 -10t-160 7q-134 11 -228 117q-69 78 -91 235q-13 81 -13 183zM662 1593q-56 0 -96 -40t-40 -86
q0 -86 68 -125q31 -17 77 -17t85 39t39 94t-39 95t-94 40zM453 1458q-1 56 27 106t76 78t104 27q56 0 104 -28q48 -29 77 -77q27 -48 27 -121t-60 -133t-132 -60q-136 -1 -196 103q-27 48 -27 105z" />
    <glyph glyph-name="uhungarumlaut.smcp" horiz-adv-x="1265" 
d="M182 532v635h119v-635q0 -258 86 -344q47 -47 112 -64q65 -18 161 -18t157 18q138 42 178 197q23 85 23 211v635h119v-635q0 -267 -94 -397q-43 -57 -107 -91t-126 -44t-136 -10t-160 7q-134 11 -228 117q-69 78 -91 235q-13 81 -13 183zM741 1290l230 273h147l-272 -273
h-105zM463 1290l229 273h146l-273 -273h-102z" />
    <glyph glyph-name="tcommaaccent.smcp" horiz-adv-x="1073" 
d="M80 1051v116h919v-116h-401v-1051h-117v1051h-401zM469 -96h102q0 -160 -43 -219t-163 -60h-91v56l95 22q55 16 77 61t23 140z" />
    <glyph glyph-name="lslash.smcp" horiz-adv-x="1019" 
d="M190 1167h117v-471l242 99l-2 -101l-240 -98v-395q0 -49 25 -67t76 -17h559v-117h-600q-82 0 -129 46t-48 130v373l-129 -55v102l129 53v518z" />
    <glyph glyph-name="questiondown.smcp" horiz-adv-x="1021" 
d="M520 1008v120q0 39 41 39h80q17 0 29 -11t12 -28v-120q0 -43 -41 -43h-80q-41 0 -41 43zM129 311v99q0 158 120 228t292 46v143h121v-245q-210 3 -258 -8q-158 -37 -158 -164v-99q0 -104 63 -151t201 -47h434v-90q-270 -33 -442 -29q-188 0 -281 85q-92 85 -92 232z" />
    <glyph glyph-name="oe.smcp" horiz-adv-x="1839" 
d="M598 1061q-99 0 -152 -7q-54 -7 -120 -48q-66 -40 -102 -203q-16 -69 -15 -207q0 -252 52 -356q52 -103 184 -124q57 -10 143 -10t138 8t104 38t81 80q64 112 65 323q0 211 -18 277t-33 102q-15 34 -42 58t-53 37t-79 23q-54 10 -153 9zM985 135q-96 -145 -356 -145
q-188 0 -262 20t-112 48t-71 72q-92 123 -92 466q0 344 123 467q115 115 340 115q162 0 222 -12q59 -12 93 -28q74 -32 117 -100q31 131 203 131l565 -22v-92h-561q-82 0 -94 -42q-6 -17 -6 -48v-322l598 -14v-92l-598 -13v-323q0 -88 90 -88h571v-90l-606 -27
q-70 0 -113 38t-51 101z" />
    <glyph glyph-name="ydieresis.smcp" horiz-adv-x="1155" 
d="M641 -2h-117v391l-444 778h129l375 -655l368 655h129l-440 -778v-391zM762 1371q0 33 24 57t57 24q35 0 57 -24t22 -58t-23 -56q-23 -24 -57 -24t-56 24q-24 24 -24 57zM240 1371q0 33 24 57t57 24q35 0 57 -24t22 -58t-24 -56q-22 -24 -56 -24t-56 24q-24 24 -24 57z
" />
    <glyph glyph-name="sterling.smcp" horiz-adv-x="1079" 
d="M115 0v74l114 32v422h-114v66l116 24v183q0 369 402 368l336 -24v-88h-334q-162 0 -225 -65t-64 -195v-172l496 -27v-74h-496v-409h621v-115h-852z" />
    <glyph glyph-name="yen.smcp" horiz-adv-x="1042" 
d="M918 528v-90h-338v-92h338v-90h-338v-256h-117v256h-320v90h320v92h-320v90h297l-395 641h133l344 -551l338 551h137l-397 -641h318z" />
    <glyph glyph-name="perthousand.smcp" horiz-adv-x="2392" 
d="M1784 256q0 -92 36 -125t126 -33h92q98 0 132 32t34 126v127q0 90 -35 124t-127 34h-92q-100 0 -133 -33t-33 -125v-127zM1686 256v127q0 135 57 195t207 61h92q148 0 204 -60t56 -196v-127q0 -136 -57 -196t-207 -60h-92q-145 0 -203 60q-57 61 -57 196zM1055 256
q0 -92 35 -125t127 -33h92q98 0 132 32t34 126v127q0 116 -65 143q-34 14 -97 15h-92q-99 0 -133 -33t-33 -125v-127zM956 256v127q0 135 56 195t209 61h92q145 0 203 -60t57 -196v-127q0 -136 -57 -196t-207 -60h-92q-147 0 -204 60t-57 196zM410 0l702 1167h111
l-703 -1167h-110zM164 784q0 -92 36 -125t126 -32h94q68 0 102 14t49 47q14 33 15 96v129q0 90 -35 124t-127 34h-94q-68 0 -103 -14t-49 -47t-14 -97v-129zM66 784v129q0 135 57 195t207 61h94q144 0 202 -60t58 -196v-129q0 -135 -57 -195t-207 -61h-94q-187 0 -237 112
q-23 54 -23 144z" />
    <glyph glyph-name="circumflex.smcp" horiz-adv-x="813" 
d="M115 1087l250 267h110l223 -267h-108l-174 177l-191 -177h-110z" />
    <glyph glyph-name="tilde.smcp" horiz-adv-x="919" 
d="M574 1200q44 0 72 14l46 23l27 15q9 6 29 18t26 16l33 -61q-10 -10 -58 -50q-48 -39 -88 -59t-89 -19t-121 49t-108 47q-35 -1 -65 -11t-71 -36t-62 -36l-30 61q51 43 79 65q79 62 142 61t141 -49q77 -48 97 -48z" />
    <glyph glyph-name="ring.smcp" horiz-adv-x="643" 
d="M188 1294q0 -55 39 -94t95 -39t95 39q38 39 38 94q0 56 -39 96t-94 40t-95 -40q-39 -41 -39 -96zM115 1294q0 88 60 150t132 61t119 -29t75 -76q27 -48 27 -121t-60 -134t-146 -61t-146 60q-60 62 -61 150z" />
    <glyph glyph-name="hbar.smcp" horiz-adv-x="1230" 
d="M301 623h684v208h-684v-208zM84 831v76h100v260h117v-260h684v260h117v-260h100v-76h-100v-833h-117v508h-684v-508h-117v833h-100z" />
    <glyph glyph-name="hcircumflex.smcp" horiz-adv-x="1230" 
d="M184 -2v1169h117v-544h684v544h117v-1169h-117v506h-684v-506h-117zM344 1290l250 266h108l226 -266h-109l-174 176l-192 -176h-109z" />
    <glyph glyph-name="gbreve.smcp" horiz-adv-x="1179" 
d="M567 596q205 41 314 41q108 0 182 -6v-631h-84l-29 96q-80 -51 -188 -81q-108 -29 -192 -29q-166 1 -259 82q-91 82 -125 178q-20 56 -40 131q-20 74 -21 217q0 285 86 432q92 160 350 160q113 0 264 -20q150 -20 209 -31v-95q-288 29 -440 29t-218 -41
q-135 -83 -134 -438q0 -187 70 -329q79 -161 264 -161q98 0 212 40t158 73v307h-379v76zM397 1542h74q0 -68 48 -114t115 -46t114 44t47 116h73q0 -109 -72 -171t-163 -62q-90 0 -163 62q-73 63 -73 171z" />
    <glyph glyph-name="jcircumflex.smcp" horiz-adv-x="679" 
d="M436 1167h117v-827q0 -229 -115 -303q-171 -97 -358 6l8 82q137 -24 194 -17q58 8 87 32q63 53 67 200v827zM178 1290l250 266h111l223 -266h-109l-174 176l-190 -176h-111z" />
    <glyph glyph-name="cdotaccent.smcp" horiz-adv-x="1073" 
d="M125 604q0 96 10 175q24 186 118 295q95 110 290 110q75 0 229 -16t227 -31v-90q-25 4 -193 12t-263 8q-162 0 -232 -116t-69 -347q0 -365 152 -459q60 -37 149 -36l456 20v-86q-266 -51 -456 -51q-107 0 -185 38t-122 95t-69 143q-26 86 -34 163t-8 173zM547 1356v117
q0 43 41 43h76q39 0 38 -43v-117q0 -39 -38 -39h-76q-18 0 -30 11q-11 12 -11 28z" />
    <glyph glyph-name="ccircumflex.smcp" horiz-adv-x="1073" 
d="M125 604q0 96 10 175q24 186 118 295q95 110 290 110q75 0 229 -16t227 -31v-90q-25 4 -193 12t-263 8q-162 0 -232 -116t-69 -347q0 -365 152 -459q60 -37 149 -36l456 20v-86q-266 -51 -456 -51q-107 0 -185 38t-122 95t-69 143q-26 86 -34 163t-8 173zM338 1317
l250 266h110l226 -266h-109l-174 176l-192 -176h-111z" />
    <glyph glyph-name="gdotaccent.smcp" horiz-adv-x="1179" 
d="M567 596q205 41 314 41q108 0 182 -6v-631h-84l-29 96q-80 -51 -188 -81q-108 -29 -192 -29q-166 1 -259 82q-91 82 -125 178q-20 56 -40 131q-20 74 -21 217q0 285 86 432q92 160 350 160q113 0 264 -20q150 -20 209 -31v-95q-288 29 -440 29t-218 -41
q-135 -83 -134 -438q0 -187 70 -329q79 -161 264 -161q98 0 212 40t158 73v307h-379v76zM563 1348v116q0 43 41 43h76q39 0 39 -43v-116q0 -39 -39 -39h-76q-18 0 -30 11q-11 12 -11 28z" />
    <glyph glyph-name="gcircumflex.smcp" horiz-adv-x="1179" 
d="M567 596q205 41 314 41q108 0 182 -6v-631h-84l-29 96q-80 -51 -188 -81q-108 -29 -192 -29q-166 1 -259 82q-91 82 -125 178q-20 56 -40 131q-20 74 -21 217q0 285 86 432q92 160 350 160q113 0 264 -20q150 -20 209 -31v-95q-288 29 -440 29t-218 -41
q-135 -83 -134 -438q0 -187 70 -329q79 -161 264 -161q98 0 212 40t158 73v307h-379v76zM352 1307l250 266h111l225 -266h-109l-174 176l-192 -176h-111z" />
    <glyph glyph-name="ubreve.smcp" horiz-adv-x="1265" 
d="M182 532v635h119v-635q0 -258 86 -344q47 -47 112 -64q65 -18 161 -18t157 18q138 42 178 197q23 85 23 211v635h119v-635q0 -267 -94 -397q-43 -57 -107 -91t-126 -44t-136 -10t-160 7q-134 11 -228 117q-69 78 -91 235q-13 81 -13 183zM426 1524h72q0 -68 49 -114
t103 -46q108 0 152 76q22 37 21 84h74q0 -115 -75 -173q-75 -59 -164 -60q-90 -1 -161 63q-71 63 -71 170z" />
    <glyph glyph-name="scircumflex.smcp" horiz-adv-x="1112" 
d="M125 766v127q0 281 283 281q231 0 532 -37v-88q-332 10 -532 10q-166 0 -166 -166v-127q0 -90 36 -112q15 -9 22 -13t33 -6t34 -3t41 -1h321q131 0 199 -65t67 -181v-143q0 -163 -92 -216q-76 -46 -177 -46t-303 12t-253 28v84q362 -8 559 -8q74 0 112 52t38 94v143
q0 67 -35 99t-115 32h-321q-100 0 -160 20q-124 42 -123 230zM236 1305l251 266h109l225 -266h-108l-174 176l-193 -176h-110z" />
    <glyph glyph-name="Idotaccent.smcp" horiz-adv-x="405" 
d="M143 1370v117q0 43 41 43h76q39 0 39 -43v-117q0 -39 -39 -39h-76q-18 -1 -30 11t-11 28zM160 0v1167h116v-1167h-116z" />
    <glyph glyph-name="periodcentered.smcp" horiz-adv-x="550" 
d="M205 582v84q0 43 39 43h82q41 0 41 -43v-84q0 -41 -41 -41h-82q-16 0 -28 11q-11 12 -11 30z" />
    <glyph glyph-name="bullet.smcp" horiz-adv-x="645" 
d="M195 596v129q0 72 67 72h117q72 0 72 -72v-129q0 -66 -72 -66h-117q-42 0 -54 24q-13 24 -13 42z" />
    <glyph glyph-name="quoteleft.smcp" horiz-adv-x="495" 
d="M152 807v219q0 53 18 89q39 78 166 65v-58q-66 2 -66 -63v-68h25q49 0 49 -51v-133q0 -55 -49 -55h-92q-51 0 -51 55z" />
    <glyph glyph-name="quoteright.smcp" horiz-adv-x="495" 
d="M203 942q-51 0 -51 51v133q0 55 51 56h92q49 0 49 -56v-221q0 -53 -18 -88t-45 -47q-64 -28 -119 -16v55q63 -2 63 63v70h-22z" />
    <glyph glyph-name="uni1E03.smcp" horiz-adv-x="1120" 
d="M301 662h401q100 0 150 47q49 47 49 151q0 193 -199 193h-401v-391zM301 119h401q149 0 187 96q18 45 18 128t-53 142t-152 60q-354 -2 -401 0v-426zM184 0v1169h518q183 0 254 -104q62 -88 62 -203t-42 -174t-112 -92q56 -18 108 -87t52 -181q0 -328 -322 -328h-518z
M502 1331v117q0 43 41 43h73q41 0 41 -43v-117q0 -39 -41 -39h-73q-25 0 -33 14t-8 25z" />
    <glyph glyph-name="uni1E0B.smcp" horiz-adv-x="1241" 
d="M301 117h375q192 0 265 138q65 121 66 344t-93 339t-238 117h-375v-938zM184 0v1171h492q102 -1 183 -39q144 -67 205 -223q60 -156 60 -302q0 -365 -139 -498q-45 -43 -81 -63q-80 -46 -228 -46h-492zM510 1333v117q0 43 41 43h76q39 0 39 -43v-117q0 -39 -39 -39h-76
q-25 0 -33 14t-8 25z" />
    <glyph glyph-name="uni1E1F.smcp" horiz-adv-x="1064" 
d="M184 0v985q0 90 56 137t157 47l574 -22v-92h-570q-61 0 -79 -23t-21 -67v-324l606 -16v-93l-606 -12v-520h-117zM514 1333v117q0 41 39 41h76q39 0 39 -41v-117q0 -39 -39 -39h-76q-15 0 -27 10t-12 29z" />
    <glyph glyph-name="uni1E41.smcp" horiz-adv-x="1505" 
d="M125 0l125 1169h137l375 -970l377 970h131l119 -1169h-113l-96 950l-367 -950h-96l-371 958l-110 -958h-111zM702 1331v117q0 43 41 43h76q39 0 39 -43v-117q0 -39 -39 -39h-76q-17 0 -29 12t-12 27z" />
    <glyph glyph-name="wgrave.smcp" horiz-adv-x="1724" 
d="M80 1167h129l371 -993l354 993h127l-133 -381l241 -612l361 993h121l-424 -1167h-117l-244 627l-223 -627h-121zM549 1565h147l230 -273h-105z" />
    <glyph glyph-name="uni1E57.smcp" horiz-adv-x="1085" 
d="M256 590h422q89 0 128 30q38 30 52 80t14 127q4 111 -53 166t-141 56h-422v-459zM137 0v1165h541q117 0 209 -71q47 -37 75 -103q28 -65 28 -145q-1 -224 -85 -299q-54 -50 -106 -61t-125 -11l-418 23v-498h-119zM481 1327v117q0 43 41 43h76q39 0 39 -43v-117
q0 -39 -39 -39h-76q-24 0 -32 14t-9 25z" />
    <glyph glyph-name="wacute.smcp" horiz-adv-x="1724" 
d="M80 1167h129l371 -993l354 993h127l-133 -381l241 -612l361 993h121l-424 -1167h-117l-244 627l-223 -627h-121zM821 1292l230 273h147l-272 -273h-105z" />
    <glyph glyph-name="ygrave.smcp" horiz-adv-x="1155" 
d="M641 -2h-117v391l-444 778h129l375 -655l368 655h129l-440 -778v-391zM264 1563h148l227 -273h-102z" />
    <glyph glyph-name="wdieresis.smcp" horiz-adv-x="1724" 
d="M80 1167h129l371 -993l354 993h127l-133 -381l241 -612l361 993h121l-424 -1167h-117l-244 627l-223 -627h-121zM1140 1452q28 0 52 -22t22 -57q0 -33 -24 -57t-56 -24q-34 0 -58 24t-23 51q0 28 11 46q12 19 30 29t46 10zM530 1373q0 34 24 57q24 22 58 22t57 -22
t23 -57q0 -33 -24 -57t-56 -24q-34 0 -58 24t-24 57z" />
    <glyph glyph-name="uni1E61.smcp" horiz-adv-x="1112" 
d="M125 766v127q0 281 283 281q231 0 532 -37v-88q-332 10 -532 10q-166 0 -166 -166v-127q0 -90 36 -112q15 -9 22 -13t33 -6t34 -3t41 -1h321q131 0 199 -65t67 -181v-143q0 -163 -92 -216q-76 -46 -177 -46t-303 12t-253 28v84q362 -8 559 -8q74 0 112 52t38 94v143
q0 67 -35 99t-115 32h-321q-100 0 -160 20q-124 42 -123 230zM469 1335v117q0 43 41 43h76q39 0 39 -43v-117q0 -39 -39 -39h-76q-25 0 -33 14t-8 25z" />
    <glyph glyph-name="wcircumflex.smcp" horiz-adv-x="1724" 
d="M80 1167h129l371 -993l354 993h127l-133 -381l241 -612l361 993h121l-424 -1167h-117l-244 627l-223 -627h-121zM582 1292l249 267h111l223 -267h-108l-174 176l-191 -176h-110z" />
    <glyph glyph-name="uni1E6B.smcp" horiz-adv-x="1073" 
d="M80 1051v116h919v-116h-401v-1051h-117v1051h-401zM461 1329v117q0 43 41 43h76q39 0 38 -43v-117q0 -39 -38 -39h-76q-26 0 -34 14t-7 25z" />
    <glyph glyph-name="ycircumflex.smcp" horiz-adv-x="1155" 
d="M641 -2h-117v391l-444 778h129l375 -655l368 655h129l-440 -778v-391zM289 1290l250 266h110l223 -266h-108l-174 176l-191 -176h-110z" />
    <glyph glyph-name="c_k" horiz-adv-x="2058" 
d="M92 546q0 386 142 495q48 35 98 47t119 12q164 0 446 -56v-81q-263 20 -379 20t-149 -7t-66 -33q-94 -74 -94 -388t128 -399q72 -50 193 -52q223 0 646 390v1108h116v-1006l549 494l166 -3l-518 -471l522 -616h-143l-465 541l-111 -103v-438h-116v336
q-203 -178 -360 -264t-286 -84q-231 0 -343 153q-42 59 -68 163q-27 104 -27 242z" />
    <glyph glyph-name="N.salt" horiz-adv-x="1398" 
d="M184 0v1335q0 74 42 121t98 54q56 6 114 -24q57 -30 84 -93l520 -1239q12 -35 40 -43t51 9t22 50v1329h117v-1337q0 -66 -42 -113q-89 -99 -208 -44q-57 28 -84 97l-524 1248q-12 31 -40 39q-28 7 -50 -11t-23 -53v-1325h-117z" />
    <glyph glyph-name="M.salt" horiz-adv-x="1644" 
d="M834 399q-47 0 -92 29q-44 29 -60 84l-254 838q-14 49 -56 41t-46 -58l-86 -1333h-115l82 1335q0 74 44 122t100 55t112 -23q55 -31 76 -96l252 -840q11 -41 39 -39t38 39l228 842q18 67 73 97t111 22t101 -56q44 -47 46 -121l101 -1337h-117l-102 1333q-3 25 -17 41
q-29 32 -64 10q-17 -10 -24 -32l-225 -840q-14 -53 -56 -83t-89 -30z" />
    <glyph glyph-name="uni1E40.salt" horiz-adv-x="1644" 
d="M125 0l82 1335q0 74 44 122t100 55t112 -23q55 -31 76 -96l252 -840q11 -41 39 -39t38 39l228 842q18 67 73 97t111 22t101 -56q44 -47 46 -121l101 -1337h-117l-102 1333q-2 33 -25 49q-24 16 -48 8t-32 -38l-225 -840q-17 -56 -46 -76q-102 -70 -191 -9q-42 29 -60 85
l-254 838q-14 49 -56 41t-46 -58l-86 -1333h-115zM807 1638q-41 0 -41 39v117q0 41 41 41h76q39 0 39 -41v-117q0 -39 -39 -39h-76z" />
    <glyph glyph-name="Ntilde.salt" horiz-adv-x="1398" 
d="M184 0v1335q0 74 42 121t98 54q56 6 114 -24q57 -30 84 -93l520 -1239q12 -35 40 -43t51 9t22 50v1329h117v-1337q0 -66 -42 -113q-89 -99 -208 -44q-57 28 -84 97l-524 1248q-12 31 -40 39q-28 7 -50 -11t-23 -53v-1325h-117zM861 1745q56 0 120 37l27 15l28 17
q20 12 27 17l33 -62q-6 -6 -29 -25q-23 -20 -50 -42q-70 -58 -151 -62q-65 4 -130 51t-116 47q-51 -1 -108 -37t-78 -46l-31 61q51 43 79 65t72 42t95 18t121 -49t91 -47z" />
    <glyph glyph-name="Nacute.salt" horiz-adv-x="1398" 
d="M184 0v1335q0 74 42 121t98 54q56 6 114 -24q57 -30 84 -93l520 -1239q12 -35 40 -43t51 9t22 50v1329h117v-1337q0 -66 -42 -113q-89 -99 -208 -44q-57 28 -84 97l-524 1248q-12 31 -40 39q-28 7 -50 -11t-23 -53v-1325h-117zM715 1632l229 273h146l-273 -273h-102z" />
    <glyph glyph-name="Ncaron.salt" horiz-adv-x="1398" 
d="M184 0v1335q0 74 42 121t98 54q56 6 114 -24q57 -30 84 -93l520 -1239q12 -35 40 -43t51 9t22 50v1329h117v-1337q0 -66 -42 -113q-89 -99 -208 -44q-57 28 -84 97l-524 1248q-12 31 -40 39q-28 7 -50 -11t-23 -53v-1325h-117zM469 1898h109l186 -176l180 176h109
l-232 -266h-112z" />
    <glyph glyph-name="Ncommaaccent.salt" horiz-adv-x="1398" 
d="M184 0v1335q0 74 42 121t98 54q56 6 114 -24q57 -30 84 -93l520 -1239q12 -35 40 -43t51 9t22 50v1329h117v-1337q0 -66 -42 -113q-89 -99 -208 -44q-57 28 -84 97l-524 1248q-12 31 -40 39q-28 7 -50 -11t-23 -53v-1325h-117zM625 -293v105q0 41 39 41h67q37 0 37 -41
v-179q0 -79 -45 -100t-90 -14v43q47 0 47 47v61h-16q-39 0 -39 37z" />
    <glyph glyph-name="zero.numerator" horiz-adv-x="987" 
d="M236 756q0 -82 32 -110t117 -28h223q90 0 118 31t28 107v506q0 72 -31 104t-115 33h-223q-86 0 -118 -33t-31 -104v-506zM137 748v522q-1 123 61 174t179 51h239q231 0 232 -225v-522q0 -134 -58 -180t-174 -46h-239q-178 0 -220 105q-20 47 -20 121z" />
    <glyph glyph-name="one.numerator" horiz-adv-x="542" 
d="M395 1499v-975h-96v869l-262 -78v71l262 113h96z" />
    <glyph glyph-name="two.numerator" horiz-adv-x="808" 
d="M72 1415q-2 0 -2 18t2 54q209 25 374 24q266 0 267 -278q0 -242 -443 -600q-10 -8 -14 -12h455v-97h-633v88q266 199 372 317t134 184q29 66 28 114q0 96 -40 142t-144 46h-356z" />
    <glyph glyph-name="three.numerator" horiz-adv-x="851" 
d="M345 516q-170 0 -269 33l2 61l362 2q98 0 139 35q40 35 39 121v47q0 78 -49 116t-120 40l-291 10v70l291 12q81 4 127 42t47 103v54q0 145 -168 145h-387v63q93 31 210 31h191q125 -1 186 -67t62 -168v-72q0 -70 -40 -119t-85 -63q125 -61 125 -195v-57q0 -182 -133 -226
q-51 -18 -129 -18h-110z" />
    <glyph glyph-name="four.numerator" horiz-adv-x="847" 
d="M598 903v248l43 98h53v-346h121v-76l-121 -24v-279h-96v279h-528l-33 39l414 653h110l-373 -592h410z" />
    <glyph glyph-name="five.numerator" horiz-adv-x="880" 
d="M788 748q0 -234 -223 -234q-301 0 -440 25v73h432q135 0 135 144v114q0 61 -13 90q-23 51 -118 54h-231q-51 0 -86 -32t-35 -85h-84l31 598h604v-96h-514l-19 -348q30 44 96 52q66 9 96 10t82 -1t64 -2q223 0 223 -231v-131z" />
    <glyph glyph-name="six.numerator" horiz-adv-x="921" 
d="M221 983q-1 -138 25 -219q26 -80 61 -112t84 -31h217q125 0 125 129v133q0 61 -30 81t-95 19h-387zM797 1411h-416q-131 0 -155 -256q-3 -43 -5 -98q219 23 369 23t194 -51q45 -50 45 -140v-150q0 -106 -58 -160t-157 -55h-219q-156 0 -220 143q-50 112 -50 369
q7 406 175 459q32 10 77 12q207 10 420 -20v-76z" />
    <glyph glyph-name="seven.numerator" horiz-adv-x="757" 
d="M35 1403v96h657l31 -53l-373 -922h-108l358 879h-565z" />
    <glyph glyph-name="eight.numerator" horiz-adv-x="983" 
d="M248 1192q0 -90 63 -116q27 -11 60 -11h241q66 0 97 36t30 91v65q0 88 -33 120q-34 32 -110 32h-199q-107 0 -134 -59q-15 -33 -15 -93v-65zM612 618q127 0 127 123v103q0 61 -34 92q-35 31 -84 31h-242q-61 0 -96 -31t-35 -90v-105q0 -88 53 -110q29 -12 82 -13h229z
M152 733v119q0 66 38 102t86 47q-124 35 -124 183v82q0 133 62 186t175 53h225q111 0 166 -55t56 -184v-82q2 -46 -25 -96t-90 -62q49 -8 82 -62t33 -112v-119q0 -213 -215 -213h-246q-129 0 -176 58t-47 155z" />
    <glyph glyph-name="nine.numerator" horiz-adv-x="921" 
d="M199 1149q0 -61 29 -81q30 -19 96 -19h387q0 362 -166 362h-221q-125 0 -125 -129v-133zM102 1143v149q0 106 60 160t155 55h220q158 0 220 -143q54 -123 50 -369q0 -323 -106 -417q-35 -31 -67 -41t-77 -13q-250 -14 -422 21v76h416q101 0 130 112q30 112 30 242
q-217 -25 -367 -25t-196 52t-46 141z" />
    <glyph glyph-name="zero.denominator" horiz-adv-x="987" 
d="M236 233q0 -81 32 -109t117 -28h223q90 0 118 31t28 106v506q0 72 -31 105t-115 33h-223q-86 0 -118 -33t-31 -105v-506zM137 225v523q-1 123 61 174t179 51h239q231 0 232 -225v-523q0 -135 -58 -180t-174 -45h-239q-177 0 -220 104q-20 47 -20 121z" />
    <glyph glyph-name="one.denominator" horiz-adv-x="542" 
d="M395 977v-975h-96v868l-262 -77v71l262 113h96z" />
    <glyph glyph-name="two.denominator" horiz-adv-x="808" 
d="M72 893q-2 0 -2 18t2 54q209 25 374 24q266 0 267 -278q0 -242 -443 -600q-10 -8 -14 -13h455v-96h-633v88q10 8 106 82t189 161q94 87 134 138q107 136 106 233t-41 143t-144 46h-356z" />
    <glyph glyph-name="three.denominator" horiz-adv-x="851" 
d="M457 -6q-282 0 -381 33l2 61l362 2q98 0 139 35q40 35 39 121v47q0 78 -49 116t-120 40l-291 10v69l291 13q81 4 127 42t47 103v53q0 145 -168 146h-387v63q93 31 210 31h186q188 0 238 -145q14 -41 15 -91v-71q0 -70 -40 -119t-85 -64q125 -61 125 -194v-57
q-1 -120 -59 -182t-201 -62z" />
    <glyph glyph-name="four.denominator" horiz-adv-x="847" 
d="M598 381v248l43 98h53v-346h121v-76l-121 -24v-279h-96v279h-528l-33 38l414 654h110l-373 -592h410z" />
    <glyph glyph-name="five.denominator" horiz-adv-x="880" 
d="M125 90h432q135 0 135 143v115q0 60 -13 89q-23 52 -118 55h-231q-51 0 -86 -32t-35 -85h-84l31 598h604v-96h-514l-19 -349q31 45 97 53q65 9 95 10t82 -1t64 -2q223 0 223 -232v-131q0 -161 -106 -211q-49 -23 -117 -22q-301 -1 -440 24v74z" />
    <glyph glyph-name="six.denominator" horiz-adv-x="921" 
d="M221 461q-1 -138 25 -219q26 -80 61 -112t84 -32h217q125 0 125 129v133q0 81 -57 95q-25 6 -68 6h-387zM797 889h-416q-68 0 -102 -59q-58 -101 -58 -295q219 23 369 23t194 -51q45 -50 45 -140v-150q0 -107 -58 -161t-157 -54h-219q-157 0 -220 142q-50 112 -50 370
q7 406 175 459q32 10 77 12q236 10 420 -20v-76z" />
    <glyph glyph-name="seven.denominator" horiz-adv-x="757" 
d="M35 881v96h657l31 -53l-373 -922h-108l358 879h-565z" />
    <glyph glyph-name="eight.denominator" horiz-adv-x="983" 
d="M248 670q0 -90 63 -116q27 -11 60 -11h241q66 0 97 36t30 91v65q0 88 -33 120q-34 32 -110 32h-199q-81 0 -115 -33t-34 -119v-65zM612 96q127 0 127 123v103q0 61 -34 92q-35 31 -84 30h-242q-61 0 -96 -30t-35 -90v-105q0 -67 28 -95t107 -28h229zM152 211v119
q0 66 38 102t86 47q-66 17 -96 69t-28 114v81q0 133 62 187t175 53h225q111 0 166 -55t56 -185v-81q2 -46 -25 -96t-90 -62q49 -8 82 -62t33 -112v-119q0 -213 -215 -213h-246q-129 0 -176 58t-47 155z" />
    <glyph glyph-name="nine.denominator" horiz-adv-x="921" 
d="M199 627q0 -61 29 -81q30 -19 96 -20h387q0 362 -166 363h-221q-125 0 -125 -129v-133zM102 621v149q0 106 60 160t155 55h220q158 0 220 -143q54 -123 50 -369q0 -361 -126 -435q-58 -33 -124 -36q-246 -14 -422 21v75h416q101 0 130 113q30 113 30 242
q-217 -25 -367 -25t-196 52t-46 141z" />
    <glyph glyph-name="c_h" horiz-adv-x="2140" 
d="M429 104l325 -2q182 0 294 67q111 67 111 253v1184h117v-645q76 47 125 71q147 74 296 74t239 -102t92 -246v-758h-119v758q1 111 -59 171t-152 60q-163 0 -290 -55q-44 -18 -132 -64v-448q0 -210 -104 -307t-273 -115q-170 -18 -273 -13q-102 5 -172 3t-121 9
q-241 53 -241 545q0 388 142 497q48 35 98 47t119 12q164 0 446 -56v-81q-263 20 -379 20t-149 -7t-66 -33q-94 -74 -94 -402t107 -403q50 -34 113 -34z" />
    <glyph glyph-name="m.salt" horiz-adv-x="1839" 
d="M137 0v989q183 73 279 95t248 22t243 -94q165 66 274 80t210 14q155 0 245 -102t90 -246v-758h-116v758q0 144 -97 199t-326 17q-89 -15 -216 -63q35 -68 35 -153v-758h-117v758q-1 106 -61 168t-166 63q-106 0 -192 -15q-85 -15 -216 -65v-909h-117z" />
    </font>
</defs>
</svg>
